Рятувальники Малібу / Baywatch (2017) 1080p Ukr/Eng | Sub Ukr/Eng

Нові коментарі

Нова тема   Відповісти
Автор Повідомлення
Argentum 
Поважний учасник


З нами з: 25.09.11
Востаннє: 12.11.19
Повідомлень: 218

2018-02-22 14:53  
Рятувальники Малібу / Baywatch (2017) 1080p Ukr/Eng | Sub Ukr/Eng

Рятувальники Малібу / Baywatch (2017) 1080p Ukr/Eng | Sub Ukr/Eng


Жанр: бойовик, комедія
Країна: США



Кінокомпанія: Cold Spring Pictures, Paramount Pictures, Contrafilm, The Montecito Picture Company
Режисер: Сет Гордон
Актори: Двейн Джонсон, Зак Ефрон, Пріянка Чопра, Олександра Даддаріо, Келлі Рорбах, Ях'я Абдул-Матін II та інші

Сюжет:
Група пляжних рятувальників працює на узбережжі Тихого океану. Вони завжди знаходяться на своєму посту і охороняють відпочиваючих від нещасних випадків на воді. Головний герой, досвідчений рятувальник Мітч Бьюкеннон, і його молодий колега Метт Броді випадково дізнаються, що їх пляж знаходиться під загрозою зникнення. Велика нафтова компанія збирається зруйнувати узбережжі, переслідуючи особисті інтереси керівництва, міцно зав'язані на фінансах.


Тривалість: 01:56:28 [Theatrical Cut]
Якість:
Відео:
кодек:
розмір кадру: 1920 х 804
бітрейт: 12.2 Мб/с

Аудіо # 1:
мова: українська
переклад: професійний дубльований
кодек: 5.1
бітрейт: 448 кб/с

Аудіо # 2:
мова: англійська
переклад: оригінал
кодек: 5.1
бітрейт: 640 кб/с

Субтитри:
мова: українська
тип: програмні (м'які)
формат: *.srt

Субтитри:
мова: англійська
тип: програмні (м'які)
формат: *.srt
Info
General
Unique ID : 147393517628463436630528458649365221487 (0x6EE2F57BD771DE547FB7D341217D906F)
Complete name : Baywatch (2017) [Ukr, Eng] 1080p [Hurtom].
Format :
Format version : Version 4 / Version 2
File size : 10.9 GiB
Duration : 1 h 56 min
Overall bit rate : 13.3 Mb/s
Movie name : Baywatch (2017)
Encoded date : UTC 2018-02-21 21:50:26
Writing application : v20.0.0 ('I Am The Sun') 64-bit
Writing library : libebml v1.3.5 + v1.4.8
Cover : Yes
Attachments : cover

Video
ID : 1
Format : AVC
Format/Info : Advanced Video Codec
Format profile : [email protected]
Format settings : CABAC / 5 Ref Frames
Format settings, CABAC : Yes
Format settings, ReFrames : 5 frames
Codec ID : V_MPEG4/ISO/AVC
Duration : 1 h 56 min
Bit rate : 12.2 Mb/s
Width : 1 920 pixels
Height : 804 pixels
Display aspect ratio : 2.40:1
Frame rate mode : Constant
Frame rate : 23.976 (24000/1001) FPS
Color space : YUV
Chroma subsampling : 4:2:0
Bit depth : 8 bits
Scan type : Progressive
Bits/(Pixel*Frame) : 0.331
Stream size : 9.96 GiB (92%)
Title : AVC @ 12200 Kbps
Writing library : core 148 r2795 aaa9aa8
Encoding settings : cabac=1 / ref=5 / deblock=1:-3:-3 / analyse=0x3:0x133 / me=umh / subme=11 / psy=1 / psy_rd=1,00:0,15 / mixed_ref=1 / me_range=48 / chroma_me=1 / trellis=2 / 8x8dct=1 / cqm=0 / deadzone=21,11 / fast_pskip=0 / chroma_qp_offset=-3 / threads=6 / lookahead_threads=1 / sliced_threads=0 / nr=0 / decimate=1 / interlaced=0 / bluray_compat=0 / constrained_intra=0 / bframes=8 / b_pyramid=2 / b_adapt=2 / b_bias=0 / direct=3 / weightb=1 / open_gop=0 / weightp=2 / keyint=240 / keyint_min=24 / scenecut=40 / intra_refresh=0 / rc_lookahead=60 / rc=crf / mbtree=0 / crf=17,0 / qcomp=0,60 / qpmin=0 / qpmax=69 / qpstep=4 / vbv_maxrate=62500 / vbv_bufsize=78125 / crf_max=0,0 / nal_hrd=none / filler=0 / ip_ratio=1,40 / pb_ratio=1,30 / aq=1:1,00
Language : English
Default : Yes
Forced : Yes
Color range : Limited
Color primaries : BT.709
Transfer characteristics : BT.709
Matrix coefficients : BT.709

Audio #1
ID : 2
Format : AC-3
Format/Info : Audio Coding 3
Codec ID : A_AC3
Duration : 1 h 56 min
Bit rate mode : Constant
Bit rate : 448 kb/s
Channel(s) : 6 channels
Channel positions : Front: L C R, Side: L R, LFE
Sampling rate : 48.0 kHz
Frame rate : 31.250 FPS (1536 SPF)
Bit depth : 16 bits
Compression mode : Lossy
Delay relative to video : 250 ms
Stream size : 373 MiB (3%)
Title : 5.1 @ 448 kbps
Language : Ukrainian
Service kind : Complete Main
Default : Yes
Forced : Yes

Audio #2
ID : 3
Format : AC-3
Format/Info : Audio Coding 3
Codec ID : A_AC3
Duration : 1 h 56 min
Bit rate mode : Constant
Bit rate : 640 kb/s
Channel(s) : 6 channels
Channel positions : Front: L C R, Side: L R, LFE
Sampling rate : 48.0 kHz
Frame rate : 31.250 FPS (1536 SPF)
Bit depth : 16 bits
Compression mode : Lossy
Delay relative to video : 10 ms
Stream size : 533 MiB (5%)
Title : 5.1 @ 640 kbps
Language : English
Service kind : Complete Main
Default : No
Forced : No

Text #1
ID : 4
Format : UTF-8
Codec ID : S_TEXT/UTF8
Codec ID/Info : UTF-8 Plain Text
Duration : 1 h 54 min
Bit rate : 92 b/s
Count of elements : 2052
Stream size : 78.0 KiB (0%)
Title : Full
Language : Ukrainian
Default : No
Forced : No

Text #2
ID : 5
Format : UTF-8
Codec ID : S_TEXT/UTF8
Codec ID/Info : UTF-8 Plain Text
Duration : 1 h 49 min
Bit rate : 80 b/s
Count of elements : 2030
Stream size : 64.7 KiB (0%)
Title : Full
Language : English
Default : No
Forced : No
Скріншоти





Подяка пану Hanway за синхронізацію та пану AngryBirdsUA за доріжку.

Підтримати купівлю інших фільмів можна тут.

Джерело: &
Особиста оцінка: 8 - мені сподобалося


 Трекер:    Зареєстрований   

Завантажити / скачати фільм українською



відео для новачків



 Зареєстрований:   2018-02-22 14:53
 Розмір:   10.85 GB 
 Оцінка фільму:   9.2/10 (Голосів: 18)
   
Інші релізи
Kumcheg1995 
Частий відвідувач


З нами з: 05.01.17
Востаннє: 12.11.19
Повідомлень: 31

2018-02-24 08:47  
Офігєнний фільм, актори просто бомба, Олександра Даддаріо Красуння)
Viking.Alex 
Новенький


З нами з: 06.05.18
Востаннє: 12.11.19
Повідомлень: 12

2019-07-30 10:53  
Крута комедія. Рекомендую подивитись!)
Ваш часовий пояс: GMT + 2 Години

Нова тема   Відповісти