Ми - монстри / Happy Family (2017) Remux 1080p Ukr/Eng

Нові коментарі

Нова тема   Відповісти
Автор Повідомлення
staf777 
Відео Гуртом - підтримка та поширення
Відео Гуртом - підтримка та поширення


З нами з: 16.11.16
Востаннє: 24.08.19
Повідомлень: 2727

2018-02-22 12:43  
Ми - монстри / Happy Family (2017) Remux 1080p Ukr/Eng

Ми - монстри / Happy Family (2017) Remux 1080p Ukr/Eng


Жанр: анімація, комедія, сімейний
Країна: Велика Британія, Німеччина



Кінокомпанія: Ambient Entertainment GmbH, United Entertainment, Mack Media
Режисер: Хольгер Таппе
Актори: Емілі Вотсон, Джейсон Айзекс, Нік Фрост, Джессіка Браун Фіндлі, Селія Імрі та інші.

Сюжет:
Емма і Френк – звичайні батьки, а Фей і Макс – їх звичайні діти. Сім'я живе своїм життям, має стандартні для багатьох людей проблеми. На жаль, вони не можуть назвати себе щасливими. Щоб урізноманітнити якось своє сімейне життя, Емма замовляє в магазині костюмів "Світ вампірів" наряди для всієї родини. Але трубку піднімає сам граф Дракула. Він пропонує відьмі зачарувати сім'ю й перетворити в монстрів. Тепер Френк став Франкенштейном, Емма – вампіром, Фей – мумією, а Макс – перевертнем. Якщо вони хочуть стати такими, як раніше, сім'я повинна зрозуміти, що для них щастя і знайти його. Адже монстрами можуть бути тільки нещасні.


Тривалість: 01:33:15
Якість: Remux 1080p
Відео:
кодек:
розмір кадру: 1920x1080
бітрейт: 23,8 Mб/с

Аудіо # 1:
мова: українська
переклад: професійний дубльований
кодек: 5.1
бітрейт: 384 кб/с

Аудіо # 2:
мова: англійська
переклад: оригінал
кодек: -HD MA 5.1
бітрейт: 2188 кб/с
Info
General
Unique ID : 224129180363850704879029331648679690662 (0xA89DB5C1BB7A0C5888B502172696C1A6)
Complete name : I:\MONSTER_FAMILY_2017_BLUEBIRD\BDMV\STREAM\Happy Family (2017) Remux 1080p [Ukr][Eng][Hurtom].
Format :
Format version : Version 4 / Version 2
File size : 17.2 GiB
Duration : 1 h 33 min
Overall bit rate mode : Variable
Overall bit rate : 26.4 Mb/s
Movie name : Happy Family (2017) Remux 1080p [Ukr][Eng][Hurtom]
Encoded date : UTC 2018-02-22 17:11:13
Writing application : v9.8.0 ('Kuglblids') 64bit
Writing library : libebml v1.3.4 + v1.4.5

Video
ID : 1
Format : AVC
Format/Info : Advanced Video Codec
Format profile : [email protected]
Format settings, CABAC : Yes
Format settings, ReFrames : 4 frames
Codec ID : V_MPEG4/ISO/AVC
Duration : 1 h 33 min
Bit rate mode : Variable
Bit rate : 23.8 Mb/s
Maximum bit rate : 38.0 Mb/s
Width : 1 920 pixels
Height : 1 080 pixels
Display aspect ratio : 16:9
Frame rate mode : Constant
Frame rate : 24.000 FPS
Color space : YUV
Chroma subsampling : 4:2:0
Bit depth : 8 bits
Scan type : Progressive
Bits/(Pixel*Frame) : 0.479
Stream size : 15.5 GiB (90%)
Default : Yes
Forced : No

Audio #1
ID : 2
Format : AC-3
Format/Info : Audio Coding 3
Mode extension : CM (complete main)
Format settings, Endianness : Big
Codec ID : A_AC3
Duration : 1 h 33 min
Bit rate mode : Constant
Bit rate : 384 kb/s
Channel(s) : 6 channels
Channel positions : Front: L C R, Side: L R, LFE
Sampling rate : 48.0 kHz
Frame rate : 31.250 FPS (1536 spf)
Bit depth : 16 bits
Compression mode : Lossy
Stream size : 256 MiB (1%)
Language : Ukrainian
Default : Yes
Forced : Yes

Audio #2
ID : 3
Format :
Format/Info : Digital Theater Systems
Format profile : MA / Core
Mode : 16
Format settings, Endianness : Big
Codec ID : A_DTS
Duration : 1 h 33 min
Bit rate mode : Variable / Constant
Bit rate : 2 188 kb/s / 1 509 kb/s
Channel(s) : 6 channels
Channel positions : Front: L C R, Side: L R, LFE
Sampling rate : 48.0 kHz
Frame rate : 93.750 FPS (512 spf)
Bit depth : 16 bits
Compression mode : Lossless / Lossy
Stream size : 1.43 GiB (8%)
Language : English
Default : No
Forced : No
Скріншоти





Джерело: &
Особиста оцінка: 0 - не дивився


Золотий реліз (завантажене не впливає на рейтинг)
 Трекер:    Зареєстрований   

Завантажити / скачати мультфільм українською



відео для новачків



 Зареєстрований:   2018-02-22 21:20
 Розмір:   17.19 GB 
 Оцінка мультфільму:   7.8/10 (Голосів: 14)
   
Інші релізи
   Ми - монстри / Happy Family (2017) AVC Ukr/Eng | Sub Ita 11FrYkT  23 / 0   1.45 GB   2018-02-24 19:35 
   Ми - монстри / Happy Family (2017) 720p Ukr/Eng | Sub Ita igor911  3 / 0   4.33 GB   2018-02-24 10:24 
   Ми - монстри / Happy Family (2017) 1080p Ukr/Eng staf777  3 / 0   8 GB   2018-02-18 19:20 
   Ми - монстри / Happy Family (2017) Jatx_11  13 / 0   1.37 GB   2018-02-06 11:58 
bot 
робот


З нами з: 30.09.07
Востаннє: 26.05.05
Повідомлень: 21799

2018-02-22 21:19  
Тему перенесено з Анонси релізів до форуму Мультфільми в HD


staf777

Uberwinder 
VIP


З нами з: 18.11.16
Востаннє: 24.08.19
Повідомлень: 276

2018-03-31 08:10  
Не шедевр, звісно, але один раз подивитись можна.
Ваш часовий пояс: GMT + 2 Години

Нова тема   Відповісти