Біонікл / LEGO Bionicle. The Journey to One (Сезон 1-2) (2016) 1080p Ukr/Eng | sub Mult

Нові коментарі

Нова тема   Відповісти
Останній раз роздавалося EgorShok (2021-03-09)
Автор Повідомлення
sergiyko.5 
Забанено
Забанено


З нами з: 25.02.16
Востаннє: 29.10.20
Повідомлень: 3648

2018-02-22 11:20  
Біонікл / LEGO Bionicle. The Journey to One (Сезон 1-2) (2016) 1080p Ukr/Eng | sub Mult

Біонікл / LEGO Bionicle. The Journey to One (Сезон 1-2) (2016) 1080p Ukr/Eng | sub Mult

Жанр: Дитячий, пригоди
Країна: США

Сюжет:
Загублений в океані острів Мата Нуї стає ареною грандіозної битви Добра зі Злом. Його мешканці, роботи Маторани змушені битися із своїм найлютішим ворогом – темним владикою Макутой, що мріє про необмежену владу. Щоразу шістьом великим кібервоінам Тоа вдавалося відстояти Мата Нуї, але на цей раз їхній супротивник могутній як ніколи. Доля острова повисає на ворсинці, бо перемога в цій битві залежить від того, до чих рук потрапить знаменита маска Світла – унікальний древній артефакт фантастичної потужності, здатний як врятувати, так і згубити увесь світ




Тривалість: 1 серія: 22:00 (загалом 4 серії з 5)
Якість:

Відео: кодек: розмір кадру: 1920 х 1080 бітрейт: 5500 кб/с
Аудіо 1: мова: українська переклад: професійний дубльований кодек: 2.0 бітрейт: 192 кб/с Студія 1+1
Аудіо 2: мова: англійська переклад: оригінал кодек: AC 5.1 бітрейт: 384 кб/с
Субтитри: мова: англійська, іспанська, французська, китайська тип: програмні (м'які) формат: *.srt

Додаткова інформація: Відсутній епізод 1 Prologue: The Legend Begins, немає української озвучки.
Перелік серій:
Сезон 1
1. Prologue: The Legend Begins
2. Quest for Unity
3. Trials of the Toa

Сезон 2
1. Destroyer’s Game
2. The Dark Portal
Про файл:

General
Unique ID : 40191849738877483537178002583694769481 (0x1E3CAB2F7AF3EC179ABD060EE7DE7D49)
Complete name : E:\MULTFILMS\LEGO Bionicle The Journey to One 1080p \LEGO Bionicle The Journey to One S01 1080p \LEGO.Bionicle.The.Journey.to.One.S01E02.1080p..Ukr.Eng.
Format :
Format version : Version 4 / Version 2
File size : 1.05 GiB
Duration : 21mn 44s
Overall bit rate mode : Variable
Overall bit rate : 6 941 Kbps
Movie name : LEGO Bionicle The Journey to One S01 1080p by sergiyko
Encoded date : UTC 2018-02-26 09:18:15
Writing application : v21.0.0 ('Tardigrades Will Inherit The Earth') 64-bit
Writing library : libebml v1.3.5 + v1.4.8
DURATION : 00:21:44.480000000
NUMBER_OF_FRAMES : 40765
NUMBER_OF_BYTES : 31307520
_STATISTICS_WRITING_APP : v21.0.0 ('Tardigrades Will Inherit The Earth') 64-bit
_STATISTICS_WRITING_DATE_UTC : 2018-02-26 09:18:15
_STATISTICS_TAGS : BPS DURATION NUMBER_OF_FRAMES NUMBER_OF_BYTES

Video
ID : 1
Format : AVC
Format/Info : Advanced Video Codec
Format profile : [email protected]
Format settings, CABAC : Yes
Format settings, ReFrames : 3 frames
Codec ID : V_MPEG4/ISO/AVC
Duration : 21mn 44s
Bit rate mode : Variable
Bit rate : 6 490 Kbps
Maximum bit rate : 9 735 Kbps
Width : 1 920 pixels
Height : 1 080 pixels
Display aspect ratio : 16:9
Frame rate mode : Constant
Frame rate : 24.000 fps
Color space : YUV
Chroma subsampling : 4:2:0
Bit depth : 8 bits
Scan type : Progressive
Bits/(Pixel*Frame) : 0.130
Stream size : 968 MiB (90%)
Title : S01E02 Quest for Unity
Writing library : core 118
Encoding settings : cabac=1 / ref=3 / deblock=1:0:0 / analyse=0x1:0x111 / me=umh / subme=10 / psy=1 / psy_rd=1.00:0.00 / mixed_ref=1 / me_range=24 / chroma_me=1 / trellis=2 / 8x8dct=0 / cqm=0 / deadzone=21,11 / fast_pskip=1 / chroma_qp_offset=-2 / threads=6 / sliced_threads=0 / nr=0 / decimate=1 / interlaced=0 / bluray_compat=0 / constrained_intra=0 / bframes=2 / b_pyramid=0 / b_adapt=2 / b_bias=0 / direct=3 / weightb=1 / open_gop=0 / weightp=2 / keyint=48 / keyint_min=25 / scenecut=0 / intra_refresh=0 / rc_lookahead=0 / rc=2pass / mbtree=1 / bitrate=6490 / ratetol=1.0 / qcomp=0.50 / qpmin=6 / qpmax=51 / qpstep=4 / cplxblur=20.0 / qblur=0.5 / vbv_maxrate=9735 / vbv_bufsize=12980 / nal_hrd=vbr / ip_ratio=1.40 / aq=1:1.00
Language : English
Default : Yes
Forced : No

Audio #1
ID : 2
Format : AC-3
Format/Info : Audio Coding 3
Mode extension : CM (complete main)
Format settings, Endianness : Big
Codec ID : A_AC3
Duration : 21mn 44s
Bit rate mode : Constant
Bit rate : 192 Kbps
Channel(s) : 2 channels
Channel positions : Front: L R
Sampling rate : 48.0 KHz
Compression mode : Lossy
Stream size : 29.9 MiB (3%)
Title : DUB 2ch | ПлюсПлюс
Language : Ukrainian
Default : Yes
Forced : Yes

Audio #2
ID : 3
Format : AC-3
Format/Info : Audio Coding 3
Mode extension : CM (complete main)
Format settings, Endianness : Big
Codec ID : A_AC3
Duration : 21mn 44s
Bit rate mode : Constant
Bit rate : 384 Kbps
Channel(s) : 6 channels
Channel positions : Front: L C R, Side: L R, LFE
Sampling rate : 48.0 KHz
Compression mode : Lossy
Stream size : 59.7 MiB (6%)
Title : Original
Language : English
Default : No
Forced : No

Text #1
ID : 4
Format : UTF-8
Codec ID : S_TEXT/UTF8
Codec ID/Info : UTF-8 Plain Text
Language : English
Default : No
Forced : No

Text #2
ID : 5
Format : UTF-8
Codec ID : S_TEXT/UTF8
Codec ID/Info : UTF-8 Plain Text
Language : Spanish
Default : No
Forced : No

Text #3
ID : 6
Format : UTF-8
Codec ID : S_TEXT/UTF8
Codec ID/Info : UTF-8 Plain Text
Language : French
Default : No
Forced : No

Text #4
ID : 7
Format : UTF-8
Codec ID : S_TEXT/UTF8
Codec ID/Info : UTF-8 Plain Text
Title : Simplified
Language : Chinese
Default : No
Forced : No

Text #5
ID : 8
Format : UTF-8
Codec ID : S_TEXT/UTF8
Codec ID/Info : UTF-8 Plain Text
Title : Traditional
Language : Chinese
Default : No
Forced : No
Скріншоти:


Автор запису/зведення: sergiyko


Бронзовий реліз (на рейтинг впливає 75% завантаженого)
 Трекер:    Зареєстрований   

Завантажити / скачати мультфільм українською



відео для новачків



 Зареєстрований:   2018-02-26 12:33
 Розмір:   4.74 GB 
 Оцінка мультсеріалу:   10/10 (Голосів: 8)
   
bot 
робот


З нами з: 30.09.07
Востаннє: 26.05.05
Повідомлень: 27938

2018-02-22 11:21  
Тему перенесено з Мультсеріали в HD до форуму Анонси релізів


sergiyko.5

bot 
робот


З нами з: 30.09.07
Востаннє: 26.05.05
Повідомлень: 27938

2018-02-26 12:33  
Тему перенесено з Анонси релізів до форуму Мультсеріали в HD


sergiyko.5

Ваш часовий пояс: GMT + 2 Години

Нова тема   Відповісти