Відпадний препод 2 (Suck Me Shakespeer 2) / Fack ju Göhte 2 (2015) 720p Ukr/Ger | Sub Ger/Eng

Нові коментарі

Нова тема   Відповісти
Останній раз роздавалося coltojkee (2019-06-18)
Автор Повідомлення
Anonymous 







2018-02-21 20:15  
Відпадний препод 2 / Suck Me Shakespeer 2 / Fack ju Göhte 2 (2015) 720p Ukr/Ger | Sub Ger/Eng

Відпадний препод 2 (Suck Me Shakespeer 2) / Fack ju Göhte 2 (2015) 720p Ukr/Ger | Sub Ger/Eng


Жанр: комедія
Країна: Німеччина



Кінокомпанія: Constantin Film International, Constantin Film, Red Balloon Films
Режисер: Бора Даґтекін / Bora Dagtekin
Актори: Елайс М'Барек / Elyas M'Barek, Йелла Хаазе / Jella Haase, Керолайн Герфурт / Karoline Herfurth, Катя Ріман / Katja Riemann, Яна Палласке / Jana Pallaske, Альвара Гефельс / Alwara Höfels та інші

Сюжет:
Невдалий грабіжник банків Зекі Мюллер, а нині крутий вчитель в школі став популярним серед учнів. Містер Мюллер і його клас відправляються в поїздку в Таїланд, щоб зміцнити репутацію своєї школи.


Вікова категорія: 14+

Тривалість: 01:55:25
Якість: 720p
Відео:
кодек:
розмір кадру: 1280 х 534
бітрейт: 5583 кб/с

Аудіо # 1:
мова: українська
переклад: багатоголосий закадровий
кодек: 2.0 [стерео]
бітрейт: 192 кб/с

Аудіо # 2:
мова: німецька
переклад: оригінал
кодек: 5.1
бітрейт: 640 кб/с

Субтитри # 1-2:
мова: німецька (форсовані, повні)
тип: програмні (м'які)
формат: *.srt

Субтитри # 3:
мова: англійська
тип: програмні (м'які)
формат: *.srt

Збережено оригінальні розділи, як на Blu-ray
Info
Код:
Complete name               : Fack ju Göhte 2 (2015) [Ukr,Ger sub.Ger,Eng] 720p [Hurtom].
Format                      :
Format version              : Version 4 / Version 2
File size                   : 5.17 GiB
Duration                    : 1 h 55 min
Overall bit rate            : 6 418 kb/s
Movie name                  : Відпадний препод 2 / Suck Me Shakespeer 2 / Fack ju Göhte 2 (2015) [Ukr,Ger sub.Ger,Eng] 720p [Hurtom]
Released date               : 2015
Encoded date                : UTC 2018-02-21 17:48:22
Writing application         : v20.0.0 ('I Am The Sun') 64-bit
Writing library             : libebml v1.3.5 + v1.4.8
Cover                       : Yes
Comment                     : http://www.imdb.com/title/tt3702996/
Attachments                 : cover.jpg
ARTIST                      : Елайс М'Барек / Elyas M'Barek, Йелла Хаазе / Jella Haase, Керолайн Герфурт / Karoline Herfurth, Катя Ріман / Katja Riemann, Яна Палласке / Jana Pallaske, Альвара Гефельс / Alwara Höfels та інші
DIRECTOR                    : Бора Даґтекін / Bora Dagtekin
GENRE                       : трилер, драма, мелодрама, комедія, кримінальний, біографічний
SYNOPSIS                    : Невдалий грабіжник банків Зекі Мюллер, а нині крутий вчитель в школі став популярним серед учнів. Містер Мюллер і його клас відправляються в поїздку в Таїланд, щоб зміцнити репутацію своєї школи...
Url                         : https://toloka.to/t87805

Video
ID                          : 1
Format                      : AVC
Format/Info                 : Advanced Video Codec
Format profile              : [email protected]
Format settings             : CABAC / 12 Ref Frames
Format settings, CABAC      : Yes
Format settings, ReFrames   : 12 frames
Codec ID                    : V_MPEG4/ISO/AVC
Duration                    : 1 h 55 min
Bit rate                    : 5 583 kb/s
Width                       : 1 280 pixels
Height                      : 534 pixels
Display aspect ratio        : 2.40:1
Frame rate mode             : Constant
Frame rate                  : 24.000 FPS
Color space                 : YUV
Chroma subsampling          : 4:2:0
Bit depth                   : 8 bits
Scan type                   : Progressive
Bits/(Pixel*Frame)          : 0.340
Stream size                 : 4.50 GiB (87%)
Title                       : Відпадний препод 2 Відпадний препод 2 / Suck Me Shakespeer 2 / Fack ju Göhte 2 (2015) 720p [Tonik]
Writing library             : core 142 r2479 dd79a61
Encoding settings           : cabac=1 / ref=12 / deblock=1:-3:-3 / analyse=0x3:0x133 / me=umh / subme=11 / psy=1 / psy_rd=1.00:0.00 / mixed_ref=1 / me_range=32 / chroma_me=1 / trellis=2 / 8x8dct=1 / cqm=0 / deadzone=21,11 / fast_pskip=0 / chroma_qp_offset=-2 / threads=6 / lookahead_threads=1 / sliced_threads=0 / nr=0 / decimate=1 / interlaced=0 / bluray_compat=0 / constrained_intra=0 / bframes=7 / b_pyramid=2 / b_adapt=2 / b_bias=0 / direct=3 / weightb=1 / open_gop=0 / weightp=2 / keyint=240 / keyint_min=24 / scenecut=40 / intra_refresh=0 / rc=crf / mbtree=0 / crf=16.3 / qcomp=0.75 / qpmin=0 / qpmax=69 / qpstep=4 / ip_ratio=1.40 / pb_ratio=1.30 / aq=2:1.00
Language                    : German
Default                     : Yes
Forced                      : No
Color range                 : Limited
Color primaries             : BT.709
Transfer characteristics    : BT.709
Matrix coefficients         : BT.709

Audio #1
ID                          : 2
Format                      : AC-3
Format/Info                 : Audio Coding 3
Codec ID                    : A_AC3
Duration                    : 1 h 55 min
Bit rate mode               : Constant
Bit rate                    : 192 kb/s
Channel(s)                  : 2 channels
Channel positions           : Front: L R
Sampling rate               : 48.0 kHz
Frame rate                  : 31.250 FPS (1536 SPF)
Bit depth                   : 16 bits
Compression mode            : Lossy
Delay relative to video     : -83 ms
Stream size                 : 158 MiB (3%)
Title                       : MVO [Novyj] 2.0 192 Kbps [Hurtom-Bohdan237]
Language                    : Ukrainian
Service kind                : Complete Main
Default                     : Yes
Forced                      : Yes

Audio #2
ID                          : 3
Format                      : AC-3
Format/Info                 : Audio Coding 3
Codec ID                    : A_AC3
Duration                    : 1 h 55 min
Bit rate mode               : Constant
Bit rate                    : 640 kb/s
Channel(s)                  : 6 channels
Channel positions           : Front: L C R, Side: L R, LFE
Sampling rate               : 48.0 kHz
Frame rate                  : 31.250 FPS (1536 SPF)
Bit depth                   : 16 bits
Compression mode            : Lossy
Delay relative to video     : -83 ms
Stream size                 : 528 MiB (10%)
Title                       : Original, 5.1 640 Kbps
Language                    : German
Service kind                : Complete Main
Default                     : No
Forced                      : No

Text #1
ID                          : 4
Format                      : UTF-8
Codec ID                    : S_TEXT/UTF8
Codec ID/Info               : UTF-8 Plain Text
Duration                    : 1 h 17 min
Bit rate                    : 1 b/s
Count of elements           : 32
Stream size                 : 999 Bytes (0%)
Title                       : Ger Forced
Language                    : German
Default                     : No
Forced                      : No

Text #2
ID                          : 5
Format                      : UTF-8
Codec ID                    : S_TEXT/UTF8
Codec ID/Info               : UTF-8 Plain Text
Duration                    : 1 h 54 min
Bit rate                    : 76 b/s
Count of elements           : 1727
Stream size                 : 64.0 KiB (0%)
Title                       : Ger Full
Language                    : German
Default                     : No
Forced                      : No

Text #3
ID                          : 6
Format                      : UTF-8
Codec ID                    : S_TEXT/UTF8
Codec ID/Info               : UTF-8 Plain Text
Duration                    : 1 h 54 min
Bit rate                    : 65 b/s
Count of elements           : 1605
Stream size                 : 54.8 KiB (0%)
Title                       : Eng Full
Language                    : English
Default                     : No
Forced                      : No

Menu
00:00:00.000                : :Chapter 1
00:06:46.458                : :Chapter 2
00:13:50.791                : :Chapter 3
00:18:46.458                : :Chapter 4
00:26:16.708                : :Chapter 5
00:32:44.708                : :Chapter 6
00:37:24.166                : :Chapter 7
00:42:59.416                : :Chapter 8
00:51:12.333                : :Chapter 9
00:57:03.666                : :Chapter 10
01:05:25.333                : :Chapter 11
01:11:51.208                : :Chapter 12
01:17:50.166                : :Chapter 13
01:25:56.416                : :Chapter 14
01:34:00.416                : :Chapter 15
01:39:58.666                : :Chapter 16
01:47:26.666                : :Chapter 17



Джерело: &
Подяка Bohdan237 за запис та синхронізацію звуку та українізацію постера.


 Трекер:    Зареєстрований   

Завантажити / скачати фільм українською



відео для новачків



 Зареєстрований:   2018-02-21 21:09
 Розмір:   5.17 GB 
 Оцінка фільму:   8.7/10 (Голосів: 9)
   
Інші релізи
   Відпадний препод 2 / Fack ju Göhte 2 (2015) AVC Bohdan237  9 / 0   1.9 GB   2018-02-17 19:25 
Oleksa9 
VIP


З нами з: 17.05.12
Востаннє: 19.06.19
Повідомлень: 361

2018-02-22 07:19  
"препод" ????
Anonymous 







2018-02-22 10:57  
так, "препод", з наголосом на перший склад 
Oleksa9 
VIP


З нами з: 17.05.12
Востаннє: 19.06.19
Повідомлень: 361

2018-02-22 16:18  
Anonymous
і що це таке?

TarantinoUA 
Новенький


З нами з: 21.09.17
Востаннє: 26.05.19
Повідомлень: 9

2019-05-22 18:58  
Буду йти з цієї роздачі. Скачайте бажаючі роздавати далі, тому що я вже і так затримався з нею, а жорсткий диск не гумовий.
Ваш часовий пояс: GMT + 2 Години

Нова тема   Відповісти