2+1 / Завтра все лиш починається / Demain tout commence (2016) 1080p 2xUkr/Fre | Sub Fre

Нові коментарі

Нова тема   Відповісти
Автор Повідомлення
staf777 
Відео Гуртом - підтримка та поширення
Відео Гуртом - підтримка та поширення


З нами з: 16.11.16
Востаннє: 20.04.19
Повідомлень: 2267

2018-02-21 11:15  
2+1 / Завтра все лиш починається / Demain tout commence (2016) 1080p 2xUkr/Fre | Sub Fre

2+1 / Завтра все лиш починається / Demain tout commence (2016) 1080p 2xUkr/Fre | Sub Fre


Жанр: комедія, драма
Країна: Франція, Велика Британія



Кінокомпанія: Mars Films, Vendôme Production, Poisson Rouge Pictures
Режисер: Г'юґо Желен
Актори: Омар Сі, Клемансо Поезі, Антуан Бертран, Ешлі Волтерс, Ґлорія Колстон, Клементін Селар'є, Анна Коттіс, Ральф фон Блюменталь, Бен Гоумвуд, Аліс Давід та інші

Сюжет:
Життя головного героя було легким й безтурботним до тих пір, поки одна з його колишніх не підкинула йому проблемне дитя. Вирішивши, що така проблема йому не потрібна, він поїхав шукати матір дівчинки Ґлорії. Проте, все склалося інакше...


Тривалість: 01:57:35
Якість: 1080p
Відео:
кодек:
розмір кадру: 1920x800
бітрейт: 8800 кб/с

Аудіо # 1:
мова: українська
переклад: багатоголосий закадровий
кодек: 5.1
бітрейт: 384 кб/с

Аудіо # 2:
мова: українська
переклад: багатоголосий закадровий
кодек: 2.0
бітрейт: 192 кб/с

Аудіо # 3:
мова: французька
переклад: оригінал
кодек: 5.1
бітрейт: 384 кб/с

Субтитри:
мова: французька
тип: програмні (м'які)
формат: *.srt
Info
General
Unique ID : 295590634620245245413474203054924385449 (0xDE60AF799F40A6AC7558C8E910A04CA9)
Complete name : S:\» HD українською » Фільми в HD\Комедія\Demain tout commence (2016) 1080p [2xUkr][Fre][Hurtom].
Format :
Format version : Version 4
File size : 8.00 GiB
Duration : 1 h 57 min
Overall bit rate : 9 742 kb/s
Movie name : Demain tout commence (2016) 1080p [2xUkr][Fre][Hurtom]
Encoded date : UTC 2019-03-02 09:56:53
Writing application : v30.1.0 ('Forever And More') 64-bit
Writing library : libebml v1.3.6 + v1.4.9
Cover : Yes
Attachments : cover

Video
ID : 1
Format : AVC
Format/Info : Advanced Video Codec
Format profile : [email protected]
Format settings : CABAC / 5 Ref Frames
Format settings, CABAC : Yes
Format settings, ReFrames : 5 frames
Codec ID : V_MPEG4/ISO/AVC
Duration : 1 h 57 min
Bit rate : 8 800 kb/s
Width : 1 920 pixels
Height : 800 pixels
Display aspect ratio : 2.40:1
Frame rate mode : Constant
Frame rate : 24.000 FPS
Color space : YUV
Chroma subsampling : 4:2:0
Bit depth : 8 bits
Scan type : Progressive
Bits/(Pixel*Frame) : 0.239
Stream size : 7.21 GiB (90%)
Writing library : core 148 r2744kMod b97ae06
Encoding settings : cabac=1 / ref=5 / deblock=1:-3:-3 / analyse=0x3:0x113 / me=umh / subme=11 / psy=1 / fade_compensate=0.00 / psy_rd=1.00:0.00 / mixed_ref=1 / me_range=32 / chroma_me=1 / trellis=2 / 8x8dct=1 / cqm=0 / deadzone=21,11 / fast_pskip=0 / chroma_qp_offset=-2 / threads=12 / lookahead_threads=2 / sliced_threads=0 / nr=0 / decimate=0 / interlaced=0 / bluray_compat=0 / constrained_intra=0 / bframes=8 / b_pyramid=2 / b_adapt=2 / b_bias=0 / direct=3 / weightb=1 / open_gop=0 / weightp=2 / keyint=240 / keyint_min=23 / scenecut=40 / intra_refresh=0 / rc=2pass / mbtree=0 / bitrate=8800 / ratetol=1.0 / qcomp=0.65 / qpmin=0 / qpmax=69 / qpstep=4 / cplxblur=20.0 / qblur=0.5 / ip_ratio=1.40 / pb_ratio=1.30 / aq=3:0.70
Language : English
Default : Yes
Forced : No

Audio #1
ID : 2
Format : AC-3
Format/Info : Audio Coding 3
Commercial name : Dolby Digital
Codec ID : A_AC3
Duration : 1 h 57 min
Bit rate mode : Constant
Bit rate : 384 kb/s
Channel(s) : 6 channels
Channel layout : L R C LFE Ls Rs
Sampling rate : 48.0 kHz
Frame rate : 31.250 FPS (1536 SPF)
Bit depth : 16 bits
Compression mode : Lossy
Stream size : 322 MiB (4%)
Title : MVO [AAASound, іTunеs], 5.1 384 kbps
Language : Ukrainian
Service kind : Complete Main
Default : Yes
Forced : Yes

Audio #2
ID : 3
Format : AC-3
Format/Info : Audio Coding 3
Commercial name : Dolby Digital
Codec ID : A_AC3
Duration : 1 h 57 min
Bit rate mode : Constant
Bit rate : 192 kb/s
Channel(s) : 2 channels
Channel layout : L R
Sampling rate : 48.0 kHz
Frame rate : 31.250 FPS (1536 SPF)
Bit depth : 16 bits
Compression mode : Lossy
Stream size : 161 MiB (2%)
Title : MVO [UKRAINA], 2.0 192 Kbps
Language : Ukrainian
Service kind : Complete Main
Default : No
Forced : No

Audio #3
ID : 4
Format : AC-3
Format/Info : Audio Coding 3
Commercial name : Dolby Digital
Codec ID : A_AC3
Duration : 1 h 57 min
Bit rate mode : Constant
Bit rate : 384 kb/s
Channel(s) : 6 channels
Channel layout : L R C LFE Ls Rs
Sampling rate : 48.0 kHz
Frame rate : 31.250 FPS (1536 SPF)
Bit depth : 16 bits
Compression mode : Lossy
Stream size : 323 MiB (4%)
Language : French
Service kind : Complete Main
Default : No
Forced : No

Text
ID : 5
Format : UTF-8
Codec ID : S_TEXT/UTF8
Codec ID/Info : UTF-8 Plain Text
Duration : 1 h 29 min
Bit rate : 11 b/s
Count of elements : 292
Stream size : 7.18 KiB (0%)
Language : French
Default : No
Forced : No

Menu
00:00:00.000 : en:00:00:00.000
00:07:54.582 : en:00:07:54.582
00:16:15.582 : en:00:16:15.582
00:28:43.665 : en:00:28:43.665
00:36:19.083 : en:00:36:19.083
00:46:12.250 : en:00:46:12.250
00:53:07.000 : en:00:53:07.000
01:04:10.500 : en:01:04:10.500
01:12:16.541 : en:01:12:16.541
01:24:57.332 : en:01:24:57.332
01:34:59.832 : en:01:34:59.832
01:47:23.625 : en:01:47:23.625
01:57:23.750 : en:01:57:23.750
Скріншоти



Джерело: &
Особиста оцінка: 0 - не дивився


 Трекер:    Зареєстрований   

Завантажити / скачати фільм українською



відео для новачків



 Зареєстрований:   2019-03-02 13:14
 Розмір:   8 GB 
 Оцінка фільму:   8.3/10 (Голосів: 18)
   
hetzendorf 
Попереджень: 1
Попереджень: 1 


З нами з: 23.07.15
Востаннє: 20.04.19
Повідомлень: 2041

2018-02-21 14:27  
Толерастичний рімейк чудового кіно «Інструкції не додаються», споганений пропагандою збочень і міжрасового сексу x_x Блювати хочеться @[email protected]
1/10

dkushch 
Новенький


З нами з: 07.02.12
Востаннє: 19.04.19
Повідомлень: 5

2018-02-21 20:36  
hetzendorf
А міжрасовий секс - це погано? Чи ти прихильник верховенства білої людини?

hetzendorf 
Попереджень: 1
Попереджень: 1 


З нами з: 23.07.15
Востаннє: 20.04.19
Повідомлень: 2041

2018-02-21 21:28  
dkushch написано:
А міжрасовий секс - це погано?

А перспектива зникнення білої раси — це добре?
dkushch написано:
Чи ти прихильник верховенства білої людини?

З чого ти це взяв?

dkushch 
Новенький


З нами з: 07.02.12
Востаннє: 19.04.19
Повідомлень: 5

2018-02-21 23:04  
hetzendorf
Ну я особисто вважаю, що людство у перспективі має змішатися: взяти ті ж самі Штати - чудове міжрасове різноманіття - при змішуванні беруться кращі риси різних рас. Так що я за глобалізацію, зникнення рас, кордонів і упередженності.

hetzendorf 
Попереджень: 1
Попереджень: 1 


З нами з: 23.07.15
Востаннє: 20.04.19
Повідомлень: 2041

2018-02-21 23:13  
dkushch
Ахххахаха, ольгінській троль за глобалізацію, насмішив ^_^
dkushch написано:
при змішуванні беруться кращі риси різних рас

Угу, ви, кацапи, чудова цьому ілюстрація ^_^

ntrader 
Свій


З нами з: 31.05.16
Востаннє: 19.04.19
Повідомлень: 67

2018-03-27 23:20  
Мені фільм сподобався
Maters 
VIP


З нами з: 27.03.12
Востаннє: 20.04.19
Повідомлень: 1628

2018-11-07 23:46  
А мені не сподобався
Drool 
VIP


З нами з: 17.04.10
Востаннє: 19.04.19
Повідомлень: 1513

2018-11-08 15:12  
hetzendorf написано:
А перспектива зникнення білої раси — це добре?
Десь я вже таке чув. Вроді дідусь Адольф Алоізович теж знищував всі раси, крім чистокровно арійської.
hetzendorf 
Попереджень: 1
Попереджень: 1 


З нами з: 23.07.15
Востаннє: 20.04.19
Повідомлень: 2041

2018-11-08 15:22  
Drool написано:
Вроді дідусь Адольф Алоізович теж знищував всі раси, крім

Почитайте матчастину й не пишіть дурні, що не здатен прикрити отой фіговий листок «вроді». Не кажучи про те, яким боком воно до:
hetzendorf написано:
перспектива зникнення білої раси

staf777 
Відео Гуртом - підтримка та поширення
Відео Гуртом - підтримка та поширення


З нами з: 16.11.16
Востаннє: 20.04.19
Повідомлень: 2267

2019-03-02 13:17  
Додав доріжку від 
darth_rus 
Новенький


З нами з: 09.09.17
Востаннє: 14.04.19
Повідомлень: 9

2019-03-03 14:25  
hetzendorf написано:

"Толерастичний рімейк"... "споганений пропагандою збочень і міжрасового сексу"....

не витримав та зігонув... )

Як такий понос взагалі можна було написати? Що у тебе в голові?

hetzendorf написано:

x_x Блювати хочеться @[email protected]

від того що це пише Українець

hetzendorf 
Попереджень: 1
Попереджень: 1 


З нами з: 23.07.15
Востаннє: 20.04.19
Повідомлень: 2041

2019-03-03 18:57  
darth_rus написано:
Що у тебе в голові?

Розуміння природи й суті речей, через що й не липне до мене (на відміну від різноманітних зайд, малоросів і манкуртів) гнилий пропагандонський дурман марксистів франкфуртської школи, що вони себе лицемірно звуть «лібералами».
darth_rus написано:
від того що це пише Українець

Насправді від несвіжого глоду. Обманює тебе куратор, мокше. Аж зовсім не палиться ольгіно darth_rus @[email protected]

Ваш часовий пояс: GMT + 2 Години

Нова тема   Відповісти