Коко / Coco (2017) Remux 1080p Ukr/Eng | Sub Eng

Нові коментарі

Нова тема   Відповісти
Автор Повідомлення
staf777 
Відео Гуртом - підтримка та поширення
Відео Гуртом - підтримка та поширення


З нами з: 16.11.16
Востаннє: 29.02.20
Повідомлень: 3545

2018-02-21 08:41  
Коко / Coco (2017) Remux 1080p Ukr/Eng | Sub Eng

Коко / Coco (2017) Remux 1080p Ukr/Eng | Sub Eng


Жанр: анімація, комедія, пригодницький
Країна: США



Кінокомпанія: Walt Disney Pictures, Pixar Animation Studios
Режисер: Лі Анкріч, Адріан Моліна
Актори: Ентоні Гонсалес, Ґаель Ґарсіа Берналь, Бенджамін Бретт, Рені Віктор, Аланна Юбак, Хайме Каміль, Гебріел Іглесіас, Альфонсо Арау, Херберт Сіґенса, Едвард Джеймс Олмос та інші

Сюжет:
Події мультфільму розгортаються тоді, коли в Мексиці відзначається День мертвих. Всі могили на кладовищах прикрашені квітами та стрічками, а дороги освітлюються спеціальними ліхтариками та свічками. 12-річний хлопчик Мігель дуже хоче займатися музикою. Але в їхній родині така діяльність вважається прокляттям і йому на роду написано стати шевцем. Тільки один день в році зв'язок зі світом мертвих стає можливим і хлопчик спробує дізнатися у своїх предків те, що його хвилює найбільше – чи зможе він стати справжнім музикантом.


Тривалість: 01:45:02
Якість: Remux 1080p
Відео:
кодек:
розмір кадру: 1920x1080
бітрейт: 24,1 Mб/с

Аудіо # 1:
мова: українська
переклад: професійний дубльований | студія LeDoyen
кодек: -HD MA 5.1
бітрейт: 3840 кб/с

Аудіо # 2:
мова: українська
переклад: професійний дубльований | студія LeDoyen
кодек: 5.1
бітрейт: 1509 кб/с

Аудіо # 3:
мова: англійська
переклад: оригінал
кодек: -HD MA 7.1
бітрейт: 4478 кб/с

Субтитри # 1: (форсовані)
мова:українська
тип: програмні (м'які)
формат: *.srt

Субтитри # 2-4:
мова: англійська (повні, SHD, SHD-кольорові)
тип: програмні (м'які)
формат: *.srt
Info
General
Unique ID : 238722470678220809910664863977224608633 (0xB39846850D96E0A49C92D7D79B851B79)
Complete name : I:\ Coco (2017) Remux 1080p [Ukr Eng][Sub Eng][Hurtom] (1).
Format :
Format version : Version 4 / Version 2
File size : 24.9 GiB
Duration : 1 h 45 min
Overall bit rate mode : Variable
Overall bit rate : 33.9 Mb/s
Movie name : Coco (2017) Remux 1080p [Ukr Eng][Sub Eng][Hurtom]
Encoded date : UTC 2018-05-06 15:31:53
Writing application : v9.8.0 ('Kuglblids') 64bit
Writing library : libebml v1.3.4 + v1.4.5
Cover : Yes
Attachments : cover.jpg

Video
ID : 1
Format : AVC
Format/Info : Advanced Video Codec
Format profile : [email protected]
Format settings : CABAC / 4 Ref Frames
Format settings, CABAC : Yes
Format settings, ReFrames : 4 frames
Format settings, GOP : M=1, N=12
Codec ID : V_MPEG4/ISO/AVC
Duration : 1 h 45 min
Bit rate mode : Variable
Bit rate : 24.1 Mb/s
Maximum bit rate : 32.0 Mb/s
Width : 1 920 pixels
Height : 1 080 pixels
Display aspect ratio : 16:9
Frame rate mode : Constant
Frame rate : 23.976 (23976/1000) FPS
Original frame rate : 23.976 (24000/1001) FPS
Color space : YUV
Chroma subsampling : 4:2:0
Bit depth : 8 bits
Scan type : Progressive
Bits/(Pixel*Frame) : 0.484
Stream size : 17.7 GiB (71%)
Language : English
Default : Yes
Forced : No

Audio #1
ID : 2
Format :
Format/Info : Digital Theater Systems
Format profile : MA / Core
Codec ID : A_DTS
Duration : 1 h 45 min
Bit rate mode : Variable / Constant
Bit rate : 3 840 kb/s / 1 509 kb/s
Channel(s) : 6 channels
Channel positions : Front: L C R, Side: L R, LFE
Sampling rate : 48.0 kHz
Frame rate : 93.750 FPS (512 SPF)
Bit depth : 24 bits
Compression mode : Lossless / Lossy
Stream size : 2.79 GiB (11%)
Title : [UA-DUB-LeDoyen] HD MA
Language : Ukrainian
Default : Yes
Forced : Yes

Audio #2
ID : 3
Format :
Format/Info : Digital Theater Systems
Codec ID : A_DTS
Duration : 1 h 45 min
Bit rate mode : Constant
Bit rate : 1 509 kb/s
Channel(s) : 6 channels
Channel positions : Front: L C R, Side: L R, LFE
Sampling rate : 48.0 kHz
Frame rate : 93.750 FPS (512 SPF)
Bit depth : 24 bits
Compression mode : Lossy
Stream size : 1.11 GiB (4%)
Title : [UA-DUB-LeDoyen]
Language : Ukrainian
Default : No
Forced : No

Audio #3
ID : 5
Format :
Format/Info : Digital Theater Systems
Format profile : MA / Core
Codec ID : A_DTS
Duration : 1 h 45 min
Bit rate mode : Variable / Constant
Bit rate : 4 478 kb/s / 1 509 kb/s
Channel(s) : 8 channels / 6 channels
Channel positions : Front: L C R, Side: L R, Back: L R, LFE / Front: L C R, Side: L R, LFE
Sampling rate : 48.0 kHz
Frame rate : 93.750 FPS (512 SPF)
Bit depth : 24 bits
Compression mode : Lossless / Lossy
Stream size : 3.29 GiB (13%)
Title : Original
Language : English
Default : No
Forced : No

Text #1
ID : 4
Format : UTF-8
Codec ID : S_TEXT/UTF8
Codec ID/Info : UTF-8 Plain Text
Duration : 2 s 1 ms
Bit rate : 127 b/s
Count of elements : 1
Stream size : 32.0 Bytes (0%)
Language : Ukrainian
Default : Yes
Forced : Yes

Text #2
ID : 6
Format : UTF-8
Codec ID : S_TEXT/UTF8
Codec ID/Info : UTF-8 Plain Text
Duration : 1 h 37 min
Bit rate : 63 b/s
Count of elements : 1441
Stream size : 45.6 KiB (0%)
Title : Full
Language : English
Default : No
Forced : No

Text #3
ID : 7
Format : UTF-8
Codec ID : S_TEXT/UTF8
Codec ID/Info : UTF-8 Plain Text
Duration : 1 h 38 min
Bit rate : 77 b/s
Count of elements : 1722
Stream size : 55.9 KiB (0%)
Title : SDH
Language : English
Default : No
Forced : No

Text #4
ID : 8
Format : UTF-8
Codec ID : S_TEXT/UTF8
Codec ID/Info : UTF-8 Plain Text
Duration : 1 h 38 min
Bit rate : 109 b/s
Count of elements : 1723
Stream size : 78.5 KiB (0%)
Title : SDH Colored
Language : English
Default : No
Forced : No

Menu
00:00:00.000 : en:Chapter 1
00:06:40.191 : en:Chapter 2
00:08:41.520 : en:Chapter 3
00:11:13.589 : en:Chapter 4
00:14:20.317 : en:Chapter 5
00:17:06.942 : en:Chapter 6
00:18:20.933 : en:Chapter 7
00:22:05.991 : en:Chapter 8
00:24:19.958 : en:Chapter 9
00:27:44.829 : en:Chapter 10
00:29:07.912 : en:Chapter 11
00:32:15.308 : en:Chapter 12
00:35:18.407 : en:Chapter 13
00:41:25.524 : en:Chapter 14
00:47:04.696 : en:Chapter 15
00:50:54.175 : en:Chapter 16
00:54:23.885 : en:Chapter 17
00:56:45.026 : en:Chapter 18
01:01:42.615 : en:Chapter 19
01:03:28.137 : en:Chapter 20
01:08:58.217 : en:Chapter 21
01:15:17.262 : en:Chapter 22
01:18:56.773 : en:Chapter 23
01:21:31.761 : en:Chapter 24
01:24:31.816 : en:Chapter 25
01:28:23.464 : en:Chapter 26
01:33:14.755 : en:Chapter 27
01:36:10.472 : en:Chapter 28
Скріншоти



Джерело: &
Подяка пану Hanway за синхронізацію.

Особиста оцінка: 0 - не дивився


Золотий реліз (завантажене не впливає на рейтинг)
 Трекер:    Зареєстрований   

Завантажити / скачати мультфільм українською



відео для новачків



 Зареєстрований:   2018-05-06 18:40
 Розмір:   24.85 GB 
 Оцінка мультфільму:   9.6/10 (Голосів: 60)
   
Інші релізи
   Коко / Coco (2017) 1080p H.265 Ukr/Eng | Sub Eng -Star-Lord-  12 / 0   5.48 GB   2019-11-20 10:19 
   Коко на всі 100 / 100% Coco (2017) Ukr/Ger drop_plz  10 / 0   1.44 GB   2019-11-16 12:41 
   Коко / Coco (2017) 1080p Ukr/Eng | Sub Eng Electroz  19 / 0   9.47 GB   2018-05-06 11:03 
   Коко / Coco (2017) 720p Ukr/Eng | Sub Eng 11FrYkT  18 / 1   6.38 GB   2018-05-06 09:49 
   Коко / Coco (2017) AVC Ukr/Eng | Sub Eng 11FrYkT  55 / 0   2.07 GB   2018-05-06 09:45 
   Коко / Coco (2017) Ukr/Eng 11FrYkT  15 / 0   2.18 GB   2018-05-06 09:39 
   Коко / Coco (2017) 720p (60 fps) Ukr/Eng | Sub Eng Drool  7 / 0   4.24 GB   2018-04-17 14:04 
   Коко / Coco (2017) Jatx_11  32 / 1   1.46 GB   2018-03-23 13:24 
Mirca 
Частий відвідувач


З нами з: 26.12.10
Востаннє: 23.02.20
Повідомлень: 43

2018-02-22 00:26  
Дуже-предуже чекаю.
phoenix_in_the_sky 
Новенький


З нами з: 12.02.12
Востаннє: 29.02.20
Повідомлень: 14

2018-02-22 01:24  
Чудовий мультфільм, глибокий та оригінальний. Цікавий і зворушливий від початку до кінця. Рекомендую!
bot 
робот


З нами з: 30.09.07
Востаннє: 26.05.05
Повідомлень: 23422

2018-03-23 15:56  
Тему перенесено з Анонси релізів до форуму Мультфільми в HD


staf777

.love-U.A. 
Новенький


З нами з: 21.04.17
Востаннє: 18.01.20
Повідомлень: 1

2018-03-24 13:39  
Всім привіт.А як називається студія яка робила переклад цього мультика?
igor911 
Модератор відео


З нами з: 18.01.08
Востаннє: 29.02.20
Повідомлень: 14130

2018-03-24 14:00  
.love-U.A., студія LeDoyen

Додано через 1 хвилину 9 секунд:

додав в опис.

ngxwinger 
Свій


З нами з: 19.01.14
Востаннє: 29.02.20
Повідомлень: 60

2018-03-24 22:43  
Неймовірний мультфільм, дуже дякую! Тут справді зрозуміло, чому він отримав Оскара. Обов'язково переглянемо ще й англійською пізніше.
paokai 
Новенький


З нами з: 24.05.12
Востаннє: 28.02.20
Повідомлень: 7

2018-04-25 17:52  
Підскажіть озвучення буде краще?, Дякую
igor911 
Модератор відео


З нами з: 18.01.08
Востаннє: 29.02.20
Повідомлень: 14130

2018-04-25 17:56  
paokai написано:
озвучення буде краще?

ліцензії 5.1 не буде https://toloka.to/t78349

Uberwinder 
VIP


З нами з: 18.11.16
Востаннє: 29.02.20
Повідомлень: 277

2018-04-27 05:21  
Дуже добрий та зворушливий мультфільм, дякую за неймовірне задоволення від перегляду!
staf777 
Відео Гуртом - підтримка та поширення
Відео Гуртом - підтримка та поширення


З нами з: 16.11.16
Востаннє: 29.02.20
Повідомлень: 3545

2018-05-06 18:39  
06.05.2018 Реліз оновлено!

Замінив доріжку на HD MA 5.1 @ 3840 kbps та 5.1 @ 1536 kbps

[email protected] 
Новенький


З нами з: 17.05.13
Востаннє: 14.01.20
Повідомлень: 4

2018-05-13 11:28  
шикарний мультфільм! 10 з 10.
geroyasfalta 
Свій


З нами з: 20.06.11
Востаннє: 27.02.20
Повідомлень: 94

2018-05-14 08:34  
Дуже дякую за HD-український звук.
takispravi 
Свій


З нами з: 24.10.13
Востаннє: 26.02.20
Повідомлень: 75

2018-05-19 20:48  
мультфільм вартий перегляду у сімейному колі. 10 з 10.
Doctor_Digital 
Свій


З нами з: 05.10.12
Востаннє: 26.02.20
Повідомлень: 67

2018-06-30 19:48  
Як на мене, мульт трішки нуднуватий
bandit45 
Новенький


З нами з: 20.07.17
Востаннє: 04.02.20
Повідомлень: 1

2019-01-08 23:35  
10 з 10.!!!
Ваш часовий пояс: GMT + 2 Години

Нова тема   Відповісти