Утікач / Втікач / The Fugitive (1993) Remux 1080p 2xUkr/Eng | Sub Eng

Нові коментарі

Нова тема   Відповісти
Автор Повідомлення
staf777 
Відео Гуртом - підтримка та поширення
Відео Гуртом - підтримка та поширення


З нами з: 16.11.16
Востаннє: 19.05.19
Повідомлень: 2356

2018-02-19 19:20  
Утікач / Втікач / The Fugitive (1993) Remux 1080p 2xUkr/Eng | Sub Eng

Утікач / Втікач / The Fugitive (1993) Remux 1080p 2xUkr/Eng | Sub Eng


Жанр: бойовик, кримінальний, драма
Країна: США



Кінокомпанія: Warner Bros., Kopelson Entertainment
Режисер: Ендрю Дейвіс / Andrew Davis
Актори: Гарісон Форд / Harrison Ford, Томі Лі Джонс / Tommy Lee Jones, Села Ворд / Sela Ward, Джуліяна Мур / Julianne Moore, Джо Пантольяно / Joe Pantoliano, Андреас Катцулас / Andreas Katsulas, Жерон Крабе / Jeroen Krabbé та інші

Сюжет:
Річард Кімбл, безпідставно обвинувачений у смерті своєї дружини, тікає з-під варти. Він повинен довести свою невинність і знайти справжнього вбивцю. Картина побудована за принципом "хто швидше" - поліція, герой або злочинець - і тримає в напрузі до самої розв'язки.


Тривалість: 02:10:17
Якість: Remux 1080p
Відео:
кодек:
розмір кадру: 1920x1080
бітрейт: 25.3 Mб/с

Аудіо # 1:
мова: українська
переклад: багатоголосий закадровий
кодек: -HD MA 5.1
бітрейт: 4402 кб/с

Аудіо # 2:
мова: українська
переклад: двоголосий закадровий
кодек: 2.0
бітрейт: 192 кб/с

Аудіо # 3:
мова: англійська
переклад: оригінал
кодек: -HD MA 5.1
бітрейт: 4382 кб/с

Аудіо # 4:
мова: англійська
переклад:(Commentary by Andrew Davis and Tommy Lee Jones)
кодек: 2.0
бітрейт: 192 кб/с

Субтитри:
мова: англійська
тип: пререндерні
формат: *.pgs
Info
General
Unique ID : 227249876525861004282499843933276137698 (0xAAF6BBF4EBBD9C34B4FBB401D9B6E8E2)
Complete name : K:\Фільми HD\Драма\The Fugitive (1993) Remux 1080p [2xUkr][Eng][Sub Eng][Hurtom].
Format :
Format version : Version 4 / Version 2
File size : 31.4 GiB
Duration : 2 h 10 min
Overall bit rate mode : Variable
Overall bit rate : 34.5 Mb/s
Movie name : The Fugitive (1993) Remux 1080p [2xUkr][Eng][Sub Eng][Hurtom]
Encoded date : UTC 2018-02-19 15:16:25
Writing application : v9.8.0 ('Kuglblids') 64bit
Writing library : libebml v1.3.4 + v1.4.5

Video
ID : 1
Format : AVC
Format/Info : Advanced Video Codec
Format profile : [email protected]
Format settings, CABAC : Yes
Format settings, ReFrames : 2 frames
Codec ID : V_MPEG4/ISO/AVC
Duration : 2 h 10 min
Bit rate mode : Variable
Bit rate : 25.3 Mb/s
Width : 1 920 pixels
Height : 1 080 pixels
Display aspect ratio : 16:9
Frame rate mode : Constant
Frame rate : 23.976 (24000/1001) FPS
Color space : YUV
Chroma subsampling : 4:2:0
Bit depth : 8 bits
Scan type : Progressive
Bits/(Pixel*Frame) : 0.509
Stream size : 23.0 GiB (73%)
Default : Yes
Forced : No

Audio #1
ID : 2
Format :
Format/Info : Digital Theater Systems
Format profile : MA / Core
Mode : 16
Format settings, Endianness : Big
Codec ID : A_DTS
Duration : 2 h 10 min
Bit rate mode : Variable / Constant
Bit rate : 4 402 kb/s / 1 509 kb/s
Channel(s) : 6 channels
Channel positions : Front: L C R, Side: L R, LFE
Sampling rate : 48.0 kHz
Frame rate : 93.750 FPS (512 spf)
Bit depth : 24 bits
Compression mode : Lossless / Lossy
Stream size : 4.01 GiB (13%)
Title : [UA-MVO- HD MA]
Language : Ukrainian
Default : Yes
Forced : Yes

Audio #2
ID : 3
Format : AC-3
Format/Info : Audio Coding 3
Mode extension : CM (complete main)
Format settings, Endianness : Big
Codec ID : A_AC3
Duration : 2 h 10 min
Bit rate mode : Constant
Bit rate : 192 kb/s
Channel(s) : 2 channels
Channel positions : Front: L R
Sampling rate : 48.0 kHz
Frame rate : 31.250 FPS (1536 spf)
Bit depth : 16 bits
Compression mode : Lossy
Stream size : 179 MiB (1%)
Title : [UA-DVO-1+1]
Language : Ukrainian
Default : No
Forced : No

Audio #3
ID : 4
Format :
Format/Info : Digital Theater Systems
Format profile : MA / Core
Mode : 16
Format settings, Endianness : Big
Codec ID : A_DTS
Duration : 2 h 10 min
Bit rate mode : Variable / Constant
Bit rate : 4 382 kb/s / 1 509 kb/s
Channel(s) : 6 channels
Channel positions : Front: L C R, Side: L R, LFE
Sampling rate : 48.0 kHz
Frame rate : 93.750 FPS (512 spf)
Bit depth : 24 bits
Compression mode : Lossless / Lossy
Stream size : 3.99 GiB (13%)
Language : English
Default : No
Forced : No

Audio #4
ID : 5
Format : AC-3
Format/Info : Audio Coding 3
Format profile : Dolby Digital
Mode extension : CM (complete main)
Format settings, Endianness : Big
Codec ID : A_AC3
Duration : 2 h 10 min
Bit rate mode : Constant
Bit rate : 192 kb/s
Channel(s) : 2 channels
Channel positions : Front: L R
Sampling rate : 48.0 kHz
Frame rate : 31.250 FPS (1536 spf)
Bit depth : 16 bits
Compression mode : Lossy
Stream size : 179 MiB (1%)
Title : (Commentary by Andrew Davis and Tommy Lee Jones)
Language : English
Default : No
Forced : No

Text #1
ID : 6
Format : PGS
Muxing mode : zlib
Codec ID : S_HDMV/PGS
Codec ID/Info : Picture based subtitle format used on BDs/HD-DVDs
Duration : 2 h 7 min
Bit rate : 4 918 b/s
Count of elements : 2618
Stream size : 4.48 MiB (0%)
Language : English
Default : No
Forced : No

Text #2
ID : 7
Format : PGS
Muxing mode : zlib
Codec ID : S_HDMV/PGS
Codec ID/Info : Picture based subtitle format used on BDs/HD-DVDs
Duration : 2 h 8 min
Bit rate : 11.3 kb/s
Count of elements : 2774
Stream size : 10.4 MiB (0%)
Language : English
Default : No
Forced : No
Скріншоти



Джерело: &
Особиста оцінка: 0 - не дивився


Золотий реліз (завантажене не впливає на рейтинг)
 Трекер:    Зареєстрований   

Завантажити / скачати фільм українською



відео для новачків



 Зареєстрований:   2018-02-19 19:20
 Розмір:   31.38 GB 
 Оцінка фільму:   9.1/10 (Голосів: 15)
   
Інші релізи
   Утікач / Втікач / The Fugitive (1993) sokeel  3 / 0   1.46 GB   2017-08-02 17:37 
   Утікач / Втікач / The Fugitive (1993) 2xUkr/Eng | Sub Eng taraskill1  4 / 0   2.77 GB   2017-07-31 13:59 
   Утікач / Втікач / The Fugitive (1993) 720p 2xUkr/Eng | Sub Eng Hurtomivets'  6 / 0   8.62 GB   2011-12-15 21:16 
kryk-v.ya. 
VIP


З нами з: 14.02.14
Востаннє: 20.05.19
Повідомлень: 1202

2018-10-28 13:43  
Просто бомбезний фільм.
[email protected] 
VIP


З нами з: 25.03.17
Востаннє: 19.05.19
Повідомлень: 296

2018-11-04 02:55  
Абсолютно згідний, фільм переглянув на одному диханні
myru22 
Частий відвідувач


З нами з: 27.11.16
Востаннє: 19.05.19
Повідомлень: 41

2018-11-09 18:54  
кіношедевр
Ваш часовий пояс: GMT + 2 Години

Нова тема   Відповісти