Клин клином / Fire with Fire (2012) 1080p 3xUkr/Eng | Sub Ukr/Eng

Нові коментарі

Нова тема   Відповісти
Автор Повідомлення
staf777 
Відео Гуртом - підтримка та поширення
Відео Гуртом - підтримка та поширення


З нами з: 16.11.16
Востаннє: 25.05.19
Повідомлень: 2382

2018-02-18 12:17  
Клин клином / Fire with Fire (2012) 1080p 3xUkr/Eng | Sub Ukr/Eng

Клин клином / Fire with Fire (2012) 1080p 3xUkr/Eng | Sub Ukr/Eng


Жанр: екшн, кримінальний, драма
Країна: США



Кінокомпанія: Cheetah Vision, Emmett/Furla Films, Envision Entertainment Corporation
Режисер: Девід Барретт
Актори: Джош Дюамель, Брюс Вілліс, Розаріо Доусон, Вінсент Д'Онофріо, Кертіс "50 Cent" Джексон, Джуліан МакМегон, Вінні Джонс, Кевін Данн

Сюжет:
Джеремі Колмeн - пожежник, його справа не тільки боротися з вогнем, а й рятувати людей, як це часто буває. Одного разу, він стає свідком подвійного вбивства, і вирішує виступити свідком. Як виявилося, краще б він цього не робив. Людина, проти якої він не побоявся давати свідчення, виявляється серйозним бандитом. Тепер Джеремі повинен визначитися, чи буде він ховатися за новою особистістю в програмі захисту свідків, постійно побоюючись за своє життя, або ж буде діяти методами свого супротивника.


Тривалість: 01:37:31
Якість: 1080p
Відео:
кодек:
розмір кадру: 1920x804
бітрейт: 12 Мб/с

Аудіо # 1:
мова: українська
переклад: багатоголосий закадровий
кодек: 2.0
бітрейт: 192 кб/с

Аудіо # 2:
мова: українська
переклад: багатоголосий закадровий
кодек: 2.0
бітрейт: 192 кб/с

Аудіо # 3:
мова: українська
переклад: багатоголосий закадровий
кодек: 2.0
бітрейт: 192 кб/с

Аудіо # 4:
мова: англійська
переклад: оригінал
кодек: 5.1
бітрейт: 1509 кб/с

Субтитри # 1:
мова: українська
тип: програмні (м'які)
формат: *.srt

Субтитри # 2-3:
мова: англійська
тип: програмні (м'які)
формат: *.srt
Info
General
Unique ID : 186859736818850286007295197299515424437 (0x8C93E0522E321E55BF561F9D6CC17EB5)
Complete name : K:\Майбутні релізи\Fire with Fire (2012) 1080p [3xUkr Eng] [Sub Ukr Eng][Hurtom].
Format :
Format version : Version 4 / Version 2
File size : 9.60 GiB
Duration : 1 h 37 min
Overall bit rate : 14.1 Mb/s
Movie name : Fire with Fire (2012) 1080p [3xUkr Eng] [Sub Ukr Eng][Hurtom]
Encoded date : UTC 2018-02-18 08:35:46
Writing application : v9.8.0 ('Kuglblids') 64bit
Writing library : libebml v1.3.4 + v1.4.5

Video
ID : 1
Format : AVC
Format/Info : Advanced Video Codec
Format profile : [email protected]
Format settings, CABAC : Yes
Format settings, ReFrames : 5 frames
Codec ID : V_MPEG4/ISO/AVC
Duration : 1 h 37 min
Bit rate : 12.0 Mb/s
Width : 1 920 pixels
Height : 804 pixels
Display aspect ratio : 2.40:1
Frame rate mode : Constant
Frame rate : 23.976 (24000/1001) FPS
Color space : YUV
Chroma subsampling : 4:2:0
Bit depth : 8 bits
Scan type : Progressive
Bits/(Pixel*Frame) : 0.324
Stream size : 8.18 GiB (85%)
Title : Fire.with.Fire.2012.1080p.BluRay..-HD
Writing library : core 128 r2216 198a7ea
Encoding settings : cabac=1 / ref=5 / deblock=1:-3:-3 / analyse=0x3:0x113 / me=tesa / subme=11 / psy=1 / psy_rd=1.05:0.00 / mixed_ref=1 / me_range=24 / chroma_me=1 / trellis=2 / 8x8dct=1 / cqm=0 / deadzone=21,11 / fast_pskip=1 / chroma_qp_offset=-2 / threads=12 / lookahead_threads=2 / sliced_threads=0 / nr=0 / decimate=1 / interlaced=0 / bluray_compat=0 / constrained_intra=0 / bframes=8 / b_pyramid=2 / b_adapt=2 / b_bias=0 / direct=3 / weightb=1 / open_gop=0 / weightp=2 / keyint=240 / keyint_min=23 / scenecut=40 / intra_refresh=0 / rc_lookahead=90 / rc=2pass / mbtree=1 / bitrate=12000 / ratetol=1.0 / qcomp=0.65 / qpmin=10 / qpmax=69 / qpstep=4 / cplxblur=20.0 / qblur=0.5 / ip_ratio=1.40 / aq=2:0.85
Language : English
Default : Yes
Forced : Yes

Audio #1
ID : 2
Format : AC-3
Format/Info : Audio Coding 3
Mode extension : CM (complete main)
Format settings, Endianness : Big
Codec ID : A_AC3
Duration : 1 h 37 min
Bit rate mode : Constant
Bit rate : 192 kb/s
Channel(s) : 2 channels
Channel positions : Front: L R
Sampling rate : 48.0 kHz
Frame rate : 31.250 FPS (1536 spf)
Bit depth : 16 bits
Compression mode : Lossy
Stream size : 134 MiB (1%)
Language : Ukrainian
Default : Yes
Forced : Yes

Audio #2
ID : 3
Format : AC-3
Format/Info : Audio Coding 3
Mode extension : CM (complete main)
Format settings, Endianness : Big
Codec ID : A_AC3
Duration : 1 h 37 min
Bit rate mode : Constant
Bit rate : 192 kb/s
Channel(s) : 2 channels
Channel positions : Front: L R
Sampling rate : 48.0 kHz
Frame rate : 31.250 FPS (1536 spf)
Bit depth : 16 bits
Compression mode : Lossy
Stream size : 134 MiB (1%)
Language : Ukrainian
Default : No
Forced : No

Audio #3
ID : 4
Format : AC-3
Format/Info : Audio Coding 3
Mode extension : CM (complete main)
Format settings, Endianness : Big
Codec ID : A_AC3
Duration : 1 h 37 min
Bit rate mode : Constant
Bit rate : 192 kb/s
Channel(s) : 2 channels
Channel positions : Front: L R
Sampling rate : 48.0 kHz
Frame rate : 31.250 FPS (1536 spf)
Bit depth : 16 bits
Compression mode : Lossy
Stream size : 134 MiB (1%)
Language : Ukrainian
Default : No
Forced : No

Audio #4
ID : 5
Format :
Format/Info : Digital Theater Systems
Mode : 16
Format settings, Endianness : Big
Codec ID : A_DTS
Duration : 1 h 37 min
Bit rate mode : Constant
Bit rate : 1 509 kb/s
Channel(s) : 6 channels
Channel positions : Front: L C R, Side: L R, LFE
Sampling rate : 48.0 kHz
Frame rate : 93.750 FPS (512 spf)
Bit depth : 24 bits
Compression mode : Lossy
Stream size : 1.03 GiB (11%)
Title : 5.1 @ 1536 kbps
Language : English
Default : No
Forced : No

Text #1
ID : 6
Format : UTF-8
Codec ID : S_TEXT/UTF8
Codec ID/Info : UTF-8 Plain Text
Duration : 1 h 32 min
Bit rate : 90 b/s
Count of elements : 1167
Stream size : 61.6 KiB (0%)
Language : Ukrainian
Default : No
Forced : No

Text #2
ID : 7
Format : UTF-8
Codec ID : S_TEXT/UTF8
Codec ID/Info : UTF-8 Plain Text
Duration : 1 h 32 min
Bit rate : 57 b/s
Count of elements : 1200
Stream size : 39.2 KiB (0%)
Language : English
Default : No
Forced : No

Text #3
ID : 8
Format : UTF-8
Codec ID : S_TEXT/UTF8
Codec ID/Info : UTF-8 Plain Text
Duration : 1 h 33 min
Bit rate : 62 b/s
Count of elements : 1297
Stream size : 42.8 KiB (0%)
Title : SDH
Language : English
Default : No
Forced : No

Menu
00:00:00.000 : en:00:00:00.000
00:03:36.091 : en:00:03:36.091
00:08:34.013 : en:00:08:34.013
00:16:14.765 : en:00:16:14.765
00:20:42.283 : en:00:20:42.283
00:26:58.242 : en:00:26:58.242
00:31:47.614 : en:00:31:47.614
00:38:16.419 : en:00:38:16.419
00:41:43.710 : en:00:41:43.710
00:45:02.783 : en:00:45:02.783
00:49:18.622 : en:00:49:18.622
00:56:32.180 : en:00:56:32.180
01:00:33.046 : en:01:00:33.046
01:05:14.119 : en:01:05:14.119
01:12:39.188 : en:01:12:39.188
01:23:30.339 : en:01:23:30.339
Скріншоти




Доріжки від НТН та України Gelios, slavik_v_z, 4erkov
Запис з 2+2 Bohdan237 Синхронізація Arsenfpu

Джерело: &
Особиста оцінка: 0 - не дивився


 Трекер:    Зареєстрований   

Завантажити / скачати фільм українською



відео для новачків



 Зареєстрований:   2018-02-18 12:17
 Розмір:   9.6 GB 
 Оцінка фільму:   7.8/10 (Голосів: 4)
   
Інші релізи
Ваш часовий пояс: GMT + 2 Години

Нова тема   Відповісти