Однокласники / Grown Ups (2010) 1080p 2xUkr/Eng | Sub Eng

Нові коментарі

Нова тема   Відповісти
Автор Повідомлення
staf777 
Відео Гуртом - підтримка та поширення
Відео Гуртом - підтримка та поширення


З нами з: 16.11.16
Востаннє: 14.12.19
Повідомлень: 3064

2018-02-16 15:36  
Однокласники / Grown Ups (2010) 1080p 2xUkr/Eng | Sub Eng

Однокласники / Grown Ups (2010) 1080p 2xUkr/Eng | Sub Eng


Жанр: комедія
Країна: США



Кінокомпанія: Happy Madison Productions, Relativity Media; мейджор – Buena Vista Sony Pictures Releasing (BVSPR)
Режисер: Денніс Дуґан
Актори: Адам Сендлер, Кевін Джеймс, Кріс Рок, Роб Шнайдер, Сальма Гайєк

Сюжет:
П'ятеро шкільних друзів вирішують провести разом вихідні на День Незалежності - та чи вийде з цього щось серйозне, адже пройшло цілих тридцять років відтоді, як вони сиділи за партами.


Тривалість: 01:42:20
Якість: 1080p

Відео:
кодек:
розмір кадру: 1920x1040
бітрейт: 9578 кб/с

Аудіо # 1:
мова: українська
переклад: професійний дубльований
кодек: 5.1
бітрейт: 640 кб/с

Аудіо # 2:
мова: українська
переклад: багатоголосий закадровий
кодек: 2.0
бітрейт: 192 кб/с

Аудіо # 3:
мова: англійська
переклад: оригінал
кодек: 5.1
бітрейт: 1509 кб/с

Субтитри # 1: (форсовані)
мова: українська
тип: програмні (м'які)
формат: *.srt

Субтитри # 2:
мова: англійська
тип: програмні (м'які)
формат: *.srt
Info
General
Unique ID : 140842684224042210961808363596236653737 (0x69F55075EE87E223A35034EED2AF04A9)
Complete name : S:\» HD українською » Фільми в HD\Комедія\Grown Ups (2010) 1080p [2xUkr][Eng][Sub Eng][Hurtom].
Format :
Format version : Version 4
File size : 8.52 GiB
Duration : 1 h 42 min
Overall bit rate : 11.9 Mb/s
Movie name : Grown Ups (2010) 1080p [2xUkr][Eng][Sub Eng][Hurtom]
Encoded date : UTC 2019-04-06 13:01:32
Writing application : v30.1.0 ('Forever And More') 64-bit
Writing library : libebml v1.3.6 + v1.4.9
Cover : Yes
Attachments : cover.jpg

Video
ID : 1
Format : AVC
Format/Info : Advanced Video Codec
Format profile : [email protected]
Format settings : CABAC / 4 Ref Frames
Format settings, CABAC : Yes
Format settings, ReFrames : 4 frames
Codec ID : V_MPEG4/ISO/AVC
Duration : 1 h 42 min
Bit rate : 9 578 kb/s
Width : 1 920 pixels
Height : 1 040 pixels
Display aspect ratio : 1.85:1
Frame rate mode : Constant
Frame rate : 23.976 (24000/1001) FPS
Color space : YUV
Chroma subsampling : 4:2:0
Bit depth : 8 bits
Scan type : Progressive
Bits/(Pixel*Frame) : 0.200
Stream size : 6.84 GiB (80%)
Writing library : core 140 r2377 1ca7bb9
Encoding settings : cabac=1 / ref=4 / deblock=1:-3:-3 / analyse=0x3:0x113 / me=umh / subme=11 / psy=1 / psy_rd=1.00:0.00 / mixed_ref=1 / me_range=32 / chroma_me=1 / trellis=2 / 8x8dct=1 / cqm=0 / deadzone=21,11 / fast_pskip=0 / chroma_qp_offset=-2 / threads=12 / lookahead_threads=1 / sliced_threads=0 / nr=0 / decimate=0 / interlaced=0 / bluray_compat=0 / constrained_intra=0 / bframes=6 / b_pyramid=2 / b_adapt=2 / b_bias=0 / direct=3 / weightb=1 / open_gop=0 / weightp=2 / keyint=240 / keyint_min=23 / scenecut=40 / intra_refresh=0 / rc=2pass / mbtree=0 / bitrate=9578 / ratetol=1.0 / qcomp=0.60 / qpmin=0 / qpmax=69 / qpstep=4 / cplxblur=20.0 / qblur=0.5 / ip_ratio=1.40 / pb_ratio=1.30 / aq=1:0.80
Language : English
Default : Yes
Forced : No

Audio #1
ID : 2
Format : AC-3
Format/Info : Audio Coding 3
Commercial name : Dolby Digital
Codec ID : A_AC3
Duration : 1 h 42 min
Bit rate mode : Constant
Bit rate : 640 kb/s
Channel(s) : 6 channels
Channel layout : L R C LFE Ls Rs
Sampling rate : 48.0 kHz
Frame rate : 31.250 FPS (1536 SPF)
Bit depth : 16 bits
Compression mode : Lossy
Stream size : 468 MiB (5%)
Title : 5.1 640 Kbps [Дубляж, Blu-Ray CEE]
Language : Ukrainian
Service kind : Complete Main
Default : Yes
Forced : Yes

Audio #2
ID : 3
Format : AC-3
Format/Info : Audio Coding 3
Commercial name : Dolby Digital
Codec ID : A_AC3
Duration : 1 h 42 min
Bit rate mode : Constant
Bit rate : 192 kb/s
Channel(s) : 2 channels
Channel layout : L R
Sampling rate : 48.0 kHz
Frame rate : 31.250 FPS (1536 SPF)
Bit depth : 16 bits
Compression mode : Lossy
Stream size : 141 MiB (2%)
Title : MVO [Paramount Comedy], 2.0 192 Kbps
Language : Ukrainian
Service kind : Complete Main
Default : No
Forced : No

Audio #3
ID : 5
Format :
Format/Info : Digital Theater Systems
Codec ID : A_DTS
Duration : 1 h 42 min
Bit rate mode : Constant
Bit rate : 1 509 kb/s
Channel(s) : 6 channels
Channel layout : C L R Ls Rs LFE
Sampling rate : 48.0 kHz
Frame rate : 93.750 FPS (512 SPF)
Bit depth : 24 bits
Compression mode : Lossy
Stream size : 1.08 GiB (13%)
Title : 5.1 1509 Kbps
Language : English
Default : No
Forced : No

Text #1
ID : 4
Format : UTF-8
Codec ID : S_TEXT/UTF8
Codec ID/Info : UTF-8 Plain Text
Duration : 1 h 20 min
Bit rate : 0 b/s
Count of elements : 6
Stream size : 112 Bytes (0%)
Title : Forced
Language : Ukrainian
Default : Yes
Forced : Yes

Text #2
ID : 6
Format : UTF-8
Codec ID : S_TEXT/UTF8
Codec ID/Info : UTF-8 Plain Text
Duration : 1 h 35 min
Bit rate : 90 b/s
Count of elements : 1751
Stream size : 62.8 KiB (0%)
Title : Full
Language : English
Default : No
Forced : No

Menu
00:00:00.000 : :Chapter 1
00:06:12.830 : :Chapter 2
00:15:50.991 : :Chapter 3
00:20:51.416 : :Chapter 4
00:25:04.503 : :Chapter 5
00:28:42.721 : :Chapter 6
00:37:09.769 : :Chapter 7
00:42:57.199 : :Chapter 8
00:50:19.391 : :Chapter 9
00:54:30.308 : :Chapter 10
01:00:19.115 : :Chapter 11
01:06:52.341 : :Chapter 12
01:12:04.445 : :Chapter 13
01:17:28.977 : :Chapter 14
01:24:11.296 : :Chapter 15
01:31:01.247 : :Chapter 16
Скріншоти
Джерело: &
Особиста оцінка: 0 - не дивився



 Трекер:    Зареєстрований   

Завантажити / скачати фільм українською



відео для новачків



 Зареєстрований:   2019-04-06 15:30
 Розмір:   8.52 GB 
 Оцінка фільму:   8.9/10 (Голосів: 20)
   
Інші релізи
   Однокласники / Grown Ups (2010) AVC 2xUkr/Eng | Sub Eng staf777  8 / 0   2.38 GB   2019-03-30 15:04 
   Однокласники / Grown Ups (2010) 2xUkr/Eng drop_plz  1 / 0   2.32 GB   2018-10-21 21:21 
   Однокласники / Grown Ups (2010) 720p Ukr/Eng SuperContik  0 / 0   4.74 GB   2011-01-12 00:04 
boroznaya 
Попереджень: 1
Попереджень: 1 


З нами з: 02.11.12
Востаннє: 14.12.19
Повідомлень: 2943

2018-02-16 20:05  
Реально відпадна комедія! Сміятись, не пересміятись!
Якість відео на висоті, дубляж просто неймовірний!
Автору велика подяка за роботу, а від мене 7/10!
P.S. Пане staf777, я захоплююсь Вашою великою роботою!

nazar.e30 
Новенький


З нами з: 09.01.11
Востаннє: 13.12.19
Повідомлень: 12

2018-02-16 21:27  
Одна з найулюбленіших комедій для моєї родини!
Адам Сендлер на висоті!

staf777 
Відео Гуртом - підтримка та поширення
Відео Гуртом - підтримка та поширення


З нами з: 16.11.16
Востаннє: 14.12.19
Повідомлень: 3064

2019-04-06 15:33  
Додав доріжку від та укр. форсовані саби
hetzendorf 
Забанено
Забанено


З нами з: 23.07.15
Востаннє: 07.12.19
Повідомлень: 2585

2019-04-24 23:04  
Щось недооцінена стрічка на imdb, насправді дотепна й кумедна. 8/10
Дякую, staf777, на цій дорозі й подивився, бо дубляж не розібрати, усе губиться на фонових звуках, ніц не чути.

Ваш часовий пояс: GMT + 2 Години

Нова тема   Відповісти