Анонім / Anonymous (2011) 1080p Ukr/Eng | Sub Eng

Нові коментарі

Нова тема   Відповісти
Автор Повідомлення
staf777 
Відео Гуртом - підтримка та поширення
Відео Гуртом - підтримка та поширення


З нами з: 16.11.16
Востаннє: 21.04.19
Повідомлень: 2275

2018-02-16 14:06  
Анонім / Anonymous (2011) 1080p Ukr/Eng | Sub Eng

Анонім / Anonymous (2011) 1080p Ukr/Eng | Sub Eng
Оригінальна обкладинка:



Жанр: драма, трилер
Країна: Німеччина, Велика Британія, США



Кінокомпанія: Columbia Pictures, Relativity Media Centropolis Entertainment Studio Babelsberg
Режисер: Роланд Еммеріх
Актори: Ріс Іфанс, Ванесса Редгрейв, Себестіан Арместо, Рейф Сполл, Девід Т’юліс.

Сюжет:
Інтрига крутиться навколо припущення, що твори Вільяма Шекспіра писав далеко не легендарний митець. Бути чи не бути скандалу? - ось питання...


Тривалість: 02:09:57
Якість: 1080p
Відео:
кодек:
розмір кадру: 1920 x 816
бітрейт: 8126 кб/с

Аудіо # 1:
мова: українська
переклад: професійний дубльований
кодек: 5.1
бітрейт: 640 кб/с

Аудіо # 2:
мова: англійська
переклад: оригінал
кодек: 5.1
бітрейт: 1509 кб/с

Субтитри # 1: (Forced)
мова: українська
тип: програмні (м'які)
формат: *.srt

Субтитри # 2-3: (Full, SDH)
мова: англійська
тип: програмні (м'які)
формат: *.srt
Info
General
Unique ID : 235055549413854614461718758852201735818 (0xB0D60D57CE2CB9A8814FA2A1317AE68A)
Complete name : K:\Майбутні релізи\Anonymous (2011) 1080p [Ukr][Eng] [Sub Eng][Hurtom].
Format :
Format version : Version 4 / Version 2
File size : 9.33 GiB
Duration : 2 h 9 min
Overall bit rate : 10.3 Mb/s
Movie name : Anonymous (2011) 1080p [Ukr][Eng] [Sub Eng][Hurtom]
Encoded date : UTC 2018-02-17 15:54:36
Writing application : v9.8.0 ('Kuglblids') 64bit
Writing library : libebml v1.3.4 + v1.4.5

Video
ID : 1
Format : AVC
Format/Info : Advanced Video Codec
Format profile : [email protected]
Format settings, CABAC : Yes
Format settings, ReFrames : 5 frames
Codec ID : V_MPEG4/ISO/AVC
Duration : 2 h 9 min
Bit rate : 8 126 kb/s
Width : 1 920 pixels
Height : 816 pixels
Display aspect ratio : 2.35:1
Frame rate mode : Constant
Frame rate : 23.976 (24000/1001) FPS
Color space : YUV
Chroma subsampling : 4:2:0
Bit depth : 8 bits
Scan type : Progressive
Bits/(Pixel*Frame) : 0.216
Stream size : 7.38 GiB (79%)
Title : Anonymous.2011.1080p.BluRay..-HDChina
Writing library : core 120 r2145 748fe16
Encoding settings : cabac=1 / ref=5 / deblock=1:-3:-3 / analyse=0x3:0x133 / me=umh / subme=10 / psy=1 / psy_rd=1.00:0.00 / mixed_ref=1 / me_range=48 / chroma_me=1 / trellis=2 / 8x8dct=1 / cqm=0 / deadzone=21,11 / fast_pskip=1 / chroma_qp_offset=-2 / threads=12 / sliced_threads=0 / nr=0 / decimate=0 / interlaced=0 / bluray_compat=0 / constrained_intra=0 / bframes=6 / b_pyramid=2 / b_adapt=2 / b_bias=0 / direct=3 / weightb=1 / open_gop=0 / weightp=2 / keyint=250 / keyint_min=23 / scenecut=40 / intra_refresh=0 / rc_lookahead=60 / rc=2pass / mbtree=1 / bitrate=8126 / ratetol=1.0 / qcomp=0.60 / qpmin=0 / qpmax=69 / qpstep=4 / cplxblur=20.0 / qblur=0.5 / vbv_maxrate=50000 / vbv_bufsize=50000 / nal_hrd=none / ip_ratio=1.50 / aq=1:1.00
Language : English
Default : No
Forced : No

Audio #1
ID : 2
Format : AC-3
Format/Info : Audio Coding 3
Mode extension : CM (complete main)
Format settings, Endianness : Big
Codec ID : A_AC3
Duration : 2 h 9 min
Bit rate mode : Constant
Bit rate : 640 kb/s
Channel(s) : 6 channels
Channel positions : Front: L C R, Side: L R, LFE
Sampling rate : 48.0 kHz
Frame rate : 31.250 FPS (1536 spf)
Bit depth : 16 bits
Compression mode : Lossy
Stream size : 595 MiB (6%)
Title : DUB-Blu-ray
Language : Ukrainian
Default : Yes
Forced : Yes

Audio #2
ID : 3
Format :
Format/Info : Digital Theater Systems
Mode : 16
Format settings, Endianness : Big
Codec ID : A_DTS
Duration : 2 h 9 min
Bit rate mode : Constant
Bit rate : 1 509 kb/s
Channel(s) : 6 channels
Channel positions : Front: L C R, Side: L R, LFE
Sampling rate : 48.0 kHz
Frame rate : 93.750 FPS (512 spf)
Bit depth : 16 bits
Compression mode : Lossy
Stream size : 1.37 GiB (15%)
Title : Original
Language : English
Default : No
Forced : No

Text #1
ID : 4
Format : UTF-8
Codec ID : S_TEXT/UTF8
Codec ID/Info : UTF-8 Plain Text
Duration : 14 min 45 s
Bit rate : 0 b/s
Count of elements : 3
Stream size : 70.0 Bytes (0%)
Language : Ukrainian
Default : Yes
Forced : Yes

Text #2
ID : 5
Format : UTF-8
Codec ID : S_TEXT/UTF8
Codec ID/Info : UTF-8 Plain Text
Duration : 2 h 2 min
Bit rate : 56 b/s
Count of elements : 1605
Stream size : 51.2 KiB (0%)
Title : Sub-full
Language : English
Default : No
Forced : No

Text #3
ID : 6
Format : UTF-8
Codec ID : S_TEXT/UTF8
Codec ID/Info : UTF-8 Plain Text
Duration : 2 h 7 min
Bit rate : 60 b/s
Count of elements : 1892
Stream size : 56.7 KiB (0%)
Title : Sub-SDH
Language : English
Default : No
Forced : No

Menu
00:00:00.000 : :00:00:00.000
00:07:43.296 : :00:07:43.296
00:17:40.726 : :00:17:40.726
00:25:22.813 : :00:25:22.813
00:31:17.918 : :00:31:17.918
00:41:30.530 : :00:41:30.530
00:49:32.177 : :00:49:32.177
00:57:07.007 : :00:57:07.007
01:02:31.206 : :01:02:31.206
01:06:06.629 : :01:06:06.629
01:12:43.567 : :01:12:43.567
01:17:19.635 : :01:17:19.635
01:23:04.396 : :01:23:04.396
01:28:47.113 : :01:28:47.113
01:40:42.870 : :01:40:42.870
01:45:32.701 : :01:45:32.701
01:49:28.478 : :01:49:28.478
01:55:37.722 : :01:55:37.722
02:02:14.660 : :02:02:14.660
Скріншоти





Подяка igor911 за укр. форсовані субтитри
Джерело: &
Особиста оцінка: 0 - не дивився

Анонім / Anonymous (2011) 1080p Ukr/Eng | Sub Eng


Анонім / Anonymous (2011) 1080p Ukr/Eng | Sub Eng


 Трекер:    Зареєстрований   

Завантажити / скачати фільм українською



відео для новачків



 Зареєстрований:   2018-02-17 19:59
 Розмір:   9.33 GB 
 Оцінка фільму:   8.6/10 (Голосів: 15)
   
Інші релізи
   Анонім / Anonymous (2011) AVC Ukr/Eng | Sub Eng Sando7  10 / 0   2.59 GB   2019-03-25 11:52 
   Анонім / Anonymous (2011) Ukr/Eng | Sub Eng BASTERD-94  3 / 1   2.59 GB   2013-03-25 19:00 
   Анонім / Anonymous (2011) 720p Ukr/Eng | Sub Eng braveboy  3 / 0   7.89 GB   2012-05-26 01:59 
bot 
робот


З нами з: 30.09.07
Востаннє: 26.05.05
Повідомлень: 21221

2018-02-16 14:06  
Тему перенесено з Фільми в HD до форуму Анонси релізів


staf777

Volo1988 
Попереджень: 1
Попереджень: 1 


З нами з: 14.12.17
Востаннє: 11.03.18
Повідомлень: 19

2018-02-17 09:21  
Обов'язковий до перегляду!!!!
bot 
робот


З нами з: 30.09.07
Востаннє: 26.05.05
Повідомлень: 21221

2018-02-17 19:59  
Тему перенесено з Анонси релізів до форуму Фільми в HD


staf777

Lyolic 
VIP


З нами з: 04.08.09
Востаннє: 21.04.19
Повідомлень: 351

2018-02-17 21:47  
staf777 
Відео Гуртом - підтримка та поширення
Відео Гуртом - підтримка та поширення


З нами з: 16.11.16
Востаннє: 21.04.19
Повідомлень: 2275

2018-02-17 22:14  
Lyolic
Дякую

boroznaya 
Попереджень: 1
Попереджень: 1 


З нами з: 02.11.12
Востаннє: 20.04.19
Повідомлень: 2966

2018-02-21 22:35  
Багато чуток ходило що до персони Вільяма Шекспіра.
Те, що показано у фільмі, це одна з найправдивіших версій.
Я за освітою актор, тому, ця тема мені дуже близька і надзвичайно цікава.
Однозначно, від мене фільм отримує 7/10! Рекомендую людям мистецтва!

Electroz 
Відео Гуртом - підтримка та поширення
Відео Гуртом - підтримка та поширення


З нами з: 18.09.14
Востаннє: 21.04.19
Повідомлень: 3265

2018-03-01 19:56  
На блюрі також наявні повні українські субтитри, чому в релізі немає?
igor911 
Відео Гуртом
Відео Гуртом


З нами з: 18.01.08
Востаннє: 21.04.19
Повідомлень: 12311

2019-03-04 01:31  
Electroz написано:
На блюрі також наявні повні українські субтитри

мабуть тільки форсовані
SUBTITLES:

Codec Language Bitrate Description
----- -------- ------- -----------
Presentation Graphics English 31,311 kbps
Presentation Graphics English 31,322 kbps
Presentation Graphics Arabic 15,573 kbps
Presentation Graphics Bulgarian 29,922 kbps
Presentation Graphics Chinese 28,725 kbps
Presentation Graphics Chinese 29,684 kbps
Presentation Graphics Croatian 29,449 kbps
Presentation Graphics Czech 28,306 kbps
Presentation Graphics Estonian 29,677 kbps
Presentation Graphics Greek 32,920 kbps
Presentation Graphics Hebrew 23,831 kbps
Presentation Graphics Hindi 30,095 kbps
Presentation Graphics Hungarian 31,655 kbps
Presentation Graphics Icelandic 31,339 kbps
Presentation Graphics Lithuanian 28,839 kbps
Presentation Graphics Polish 31,444 kbps
Presentation Graphics Portuguese 32,000 kbps
Presentation Graphics Romanian 31,779 kbps
Presentation Graphics Russian 33,051 kbps
Presentation Graphics Serbian 27,987 kbps
Presentation Graphics Slovak 29,040 kbps
Presentation Graphics Slovenian 27,259 kbps
Presentation Graphics Turkish 31,255 kbps
Presentation Graphics Ukrainian 0,168 kbps
Presentation Graphics English 64,333 kbps

Ваш часовий пояс: GMT + 2 Години

Нова тема   Відповісти