Обітниця мовчання (Stoic) / Acts of Vengeance (2017) 720p Ukr/Eng | Sub Eng — HD українською

Обітниця мовчання (Stoic) / Acts of Vengeance (2017) 720p Ukr/Eng | Sub Eng

Нові коментарі

Нова тема   Відповісти
Автор Повідомлення
Anonymous 







2018-02-15 20:24  
Обітниця мовчання / Stoic / Acts of Vengeance (2017) 720p Ukr/Eng | Sub Eng

Обітниця мовчання (Stoic) / Acts of Vengeance (2017) 720p Ukr/Eng | Sub Eng
Альтернативні постери:







Жанр: бойовик, драма
Країна: Болгарія, США



Кінокомпанія: Nu Boyana Film Studios
Режисер: Айзек Флорентайн / Isaac Florentine
Актори: Антоніо Бандерас / Antonio Banderas, Пас Веґа / Paz Vega, Карл Урбан / Karl Urban, Крістіна Серафіні / Cristina Serafini, Роберт Форстер / Robert Forster, Айзек Флорентайн / Isaac Florentine, Атанас Сребрев / Atanas Srebrev та інші

Сюжет:
Френк Валера був вельми успішним адвокатом. Був до того дня, коли його чудову дружину і улюблену дочку вбили. Він поховав рідних і тепер не зронить ні слова до того, як помститься вбивцям. День за днем ​​Френк вдосконалює свої навички, стає все сильніше і сильніше. Він готовий здобувати інформацію будь-яким способом. Крім того, доки чоловік мовчав, він по-справжньому навчився слухати, прекрасно розвинувши свій слух і пильність. Тепер Френк здійснює своє власне правосуддя, і в нього зовсім інші закони життя. Людина, яка одержима помстою, не зупинитися до самої смерті.
Офіційний український трейлер:


Рейтинг MPAA: R - особам до 17 років обов'язкова присутність батьків або дорослого опікуна
Вікова категорія: 16+

Тривалість: 01:27:20
Якість: 720p
Відео:
кодек:
розмір кадру: 1280 х 694
бітрейт: 6680 кб/с

Аудіо # 1:
мова: українська
переклад: багатоголосий закадровий | студія Pie Post Production
кодек: 2.0
бітрейт: 192 кб/с
Інформація про озвучення
Переклад: Анна Кудрявцева
Режисер дубляжу: Лідія Громовенко
Звукорежисер: Юлія Власкіна
Звукорежисер перезапису: Віталій Ящук
Ролі озвучили: Михайло Тишин, Кирило Нікітенко, Катерина Буцька, Людмила Чиркова, Олексій Сафін та інші.

Фільм озвучено компанією Pie Post Production на замовлення Parakeet film.
Аудіо # 2:
мова: англійська
переклад: оригінал
кодек: 5.1
бітрейт: 640 кб/с

Субтитри:
мова: англійська (повні, SDH)
тип: програмні (м'які)
формат: *.srt

Збережено оригінальні розділи, як на Blu-ray
Info
Код:
Complete name               : Acts of Vengeance (2017) [Ukr,Eng sub.Eng] 720p [Hurtom].
Format                      :
Format version              : Version 4 / Version 2
File size                   : 4.58 GiB
Duration                    : 1 h 27 min
Overall bit rate            : 7 515 kb/s
Movie name                  : Обітниця мовчання / Stoic / Acts of Vengeance (2017) [Ukr,Eng sub.Eng] 720p [Hurtom]
Released date               : 2017
Encoded date                : UTC 2018-02-15 17:48:22
Writing application         : v20.0.0 ('I Am The Sun') 64-bit
Writing library             : libebml v1.3.5 + v1.4.8
Cover                       : Yes
Comment                     : http://www.imdb.com/title/tt6288694/
Attachments                 : cover.jpg
ARTIST                      : Антоніо Бандерас / Antonio Banderas, Пас Веґа / Paz Vega, Карл Урбан / Karl Urban, Крістіна Серафіні / Cristina Serafini, Роберт Форстер / Robert Forster, Айзек Флорентайн / Isaac Florentine, Атанас Сребрев / Atanas Srebrev та інші
DIRECTOR                    : Айзек Флорентайн / Isaac Florentine
GENRE                       : бойовик, драма
SYNOPSIS                    : Френк Валера був вельми успішним адвокатом. Був до того дня, коли його чудову дружину і улюблену дочку вбили. Він поховав рідних і тепер не зронить ні слова до того, як помститься вбивцям. День за днем ​​Френк вдосконалює свої навички, стає все сильніше і сильніше. Він готовий здобувати інформацію будь-яким способом. Крім того, доки чоловік мовчав, він по-справжньому навчився слухати, прекрасно розвинувши свій слух і пильність. Тепер Френк здійснює своє власне правосуддя, і в нього зовсім інші закони життя. Людина, яка одержима помстою, не зупинитися до самої смерті...
Url                         : https://toloka.to/t87630

Video
ID                          : 1
Format                      : AVC
Format/Info                 : Advanced Video Codec
Format profile              : [email protected]
Format settings             : CABAC / 9 Ref Frames
Format settings, CABAC      : Yes
Format settings, ReFrames   : 9 frames
Codec ID                    : V_MPEG4/ISO/AVC
Duration                    : 1 h 27 min
Bit rate                    : 6 680 kb/s
Width                       : 1 280 pixels
Height                      : 694 pixels
Display aspect ratio        : 1.85:1
Frame rate mode             : Constant
Frame rate                  : 23.976 (24000/1001) FPS
Color space                 : YUV
Chroma subsampling          : 4:2:0
Bit depth                   : 8 bits
Scan type                   : Progressive
Bits/(Pixel*Frame)          : 0.314
Stream size                 : 4.08 GiB (89%)
Title                       : Обітниця мовчання / Stoic / Acts of Vengeance (2017) 720p
Writing library             : core 152 r2851+58 429492e t_mod_Custom [[email protected] X86_64]
Encoding settings           : cabac=1 / ref=9 / deblock=1:-3:-3 / analyse=0x3:0x133 / me=umh / subme=10 / psy=1 / fade_compensate=0.00 / psy_rd=1.00:0.00 / mixed_ref=1 / me_range=32 / chroma_me=1 / trellis=2 / 8x8dct=1 / cqm=0 / deadzone=21,11 / fast_pskip=0 / chroma_qp_offset=-2 / threads=22 / lookahead_threads=3 / sliced_threads=0 / nr=0 / decimate=0 / interlaced=0 / bluray_compat=0 / constrained_intra=0 / fgo=0 / bframes=8 / b_pyramid=2 / b_adapt=2 / b_bias=0 / direct=3 / weightb=1 / open_gop=0 / weightp=2 / keyint=250 / keyint_min=23 / scenecut=40 / intra_refresh=0 / rc_lookahead=60 / rc=crf / mbtree=0 / crf=16.0000 / qcomp=0.65 / qpmin=0:0:0 / qpmax=69:69:69 / qpstep=4 / vbv_maxrate=62500 / vbv_bufsize=78125 / crf_max=0.0 / nal_hrd=none / filler=0 / ip_ratio=1.30 / pb_ratio=1.20 / aq=3:0.81 / aq-sensitivity=10.00 / aq-factor=1.00:1.00:1.00 / aq2=0 / aq3=0 / zones=26,929,crf=11/7328,7581,crf=12/32176,33236,crf=12
Language                    : English
Default                     : Yes
Forced                      : No

Audio #1
ID                          : 2
Format                      : AC-3
Format/Info                 : Audio Coding 3
Codec ID                    : A_AC3
Duration                    : 1 h 27 min
Bit rate mode               : Constant
Bit rate                    : 192 kb/s
Channel(s)                  : 2 channels
Channel positions           : Front: L R
Sampling rate               : 44.1 kHz
Frame rate                  : 28.711 FPS (1536 SPF)
Bit depth                   : 16 bits
Compression mode            : Lossy
Stream size                 : 120 MiB (3%)
Title                       : MVO [Pie Post Production, Megogo] 2.0 192 Kbps
Language                    : Ukrainian
Service kind                : Complete Main
Default                     : Yes
Forced                      : Yes

Audio #2
ID                          : 3
Format                      : AC-3
Format/Info                 : Audio Coding 3
Codec ID                    : A_AC3
Duration                    : 1 h 27 min
Bit rate mode               : Constant
Bit rate                    : 640 kb/s
Channel(s)                  : 6 channels
Channel positions           : Front: L C R, Side: L R, LFE
Sampling rate               : 48.0 kHz
Frame rate                  : 31.250 FPS (1536 SPF)
Bit depth                   : 16 bits
Compression mode            : Lossy
Stream size                 : 400 MiB (9%)
Title                       : Original, 5.1 640 Kbps
Language                    : English
Service kind                : Complete Main
Default                     : No
Forced                      : No

Text
ID                          : 4
Format                      : UTF-8
Codec ID                    : S_TEXT/UTF8
Codec ID/Info               : UTF-8 Plain Text
Duration                    : 1 h 20 min
Bit rate                    : 27 b/s
Count of elements           : 454
Stream size                 : 16.4 KiB (0%)
Title                       : Eng Full
Language                    : English
Default                     : No
Forced                      : No

Menu
00:00:00.000                : en:00:00:00.000
00:05:16.316                : en:00:05:16.316
00:11:00.451                : en:00:11:00.451
00:17:49.318                : en:00:17:49.318
00:24:11.450                : en:00:24:11.450
00:29:07.037                : en:00:29:07.037
00:35:14.612                : en:00:35:14.612
00:39:12.308                : en:00:39:12.308
00:46:29.286                : en:00:46:29.286
00:52:56.590                : en:00:52:56.590
01:00:37.634                : en:01:00:37.634
01:05:28.091                : en:01:05:28.091
01:09:15.902                : en:01:09:15.902
01:13:51.969                : en:01:13:51.969
01:21:32.554                : en:01:21:32.554
01:23:56.031                : en:01:23:56.031


Джерело: &
Подяка за українську доріжку Jatx_11.


 Трекер:    Зареєстрований   

Завантажити / скачати фільм українською



відео для новачків



 Зареєстрований:   2018-02-15 20:54
 Розмір:   4.58 GB 
 Оцінка фільму:   9.1/10 (Голосів: 10)
   
Anonymous 







2018-02-15 21:12  
Додав інформацію про озвучення.
Estranded 
VIP


З нами з: 09.02.14
Востаннє: 21.08.18
Повідомлень: 1185

2018-02-15 22:32  
Anonymous написано:
студія Pie Post Production

Це якась нова студія? Раніше про них не чув.

Anonymous 







2018-02-15 23:04  
Estranded, на їхньому ФБ зазначено діяльність з вересня 2016.

Додано через 4 хвилини 19 секунд:

а з відомих стрічок вони озвучили для кінопрокату Ла-ла-ленд, Дівчину у потягу, Атомну блондинку, ...гугл в поміч.

Ваш часовий пояс: GMT + 2 Години

Нова тема   Відповісти