Продюсери / The Producers (1967) 720p Ukr/Eng | sub Eng

Нові коментарі

Нова тема   Відповісти
Автор Повідомлення
Omikron 
VIP


З нами з: 03.01.12
Востаннє: 16.02.18
Повідомлень: 327

2018-02-15 19:05  
Продюсери / The Producers (1967) 720p Ukr/Eng | sub Eng



Жанр: комедія
Країна: США



Кіностудія: Embassy Pictures, Springtime Productions, U-M Productions, Crossbow Productions
Режисер: Мел Брукс
Актори: Зеро Мостел, Джин Вайлдер, Крістофер Хьюіт, Андреас Вуцінас, Лі Мередіт, Кеннет Марс, Дік Шон та інші.

Сюжет:
Продюсери Макс Б'ялісток і Лео Блум хочуть заробити створивши стовідсотково провальну виставу.


Перекладено та озвучено студією Омікрон спеціально для HURTOM.COM


Тривалість: 01:29:22
Якість:
Відео:
кодек:
розмір кадру: 1280х692
бітрейт: 12,9 мб/с

Аудіо # 1:
мова: українська | Студія Омікрон
переклад: багатоголосий закадровий
кодек: 5.1
бітрейт: 448 кб/с

Аудіо # 2:
мова: англійська
переклад: оригінал
кодек: 5.1
бітрейт: 640 кб/с

Субтитри:
мова: англійська
тип: програмні (м'які)
формат: *.srt

Скріншоти








Звіт Info

Format :
Format version : Version 4 / Version 2
File size : 8.71 GiB
Duration : 1 h 29 min
Overall bit rate : 14.0 Mb/s
Encoded date : UTC 2018-02-15 14:50:51
Writing application : mkvmerge v9.9.0 ('Pick Up') 64bit
Writing library : libebml v1.3.4 + libmatroska v1.4.5

Video
ID : 1
Format : AVC
Format/Info : Advanced Video Codec
Format profile : [email protected]
Format settings, CABAC : Yes
Format settings, ReFrames : 9 frames
Codec ID : V_MPEG4/ISO/AVC
Duration : 1 h 29 min
Bit rate : 12.9 Mb/s
Width : 1 280 pixels
Height : 692 pixels
Display aspect ratio : 1.85:1
Frame rate mode : Constant
Frame rate : 23.976 (24000/1001) FPS
Color space : YUV
Chroma subsampling : 4:2:0
Bit depth : 8 bits
Scan type : Progressive
Bits/(Pixel*Frame) : 0.607
Stream size : 8.03 GiB (92%)
Writing library : core 135 r2345 f0c1c53
Encoding settings : cabac=1 / ref=9 / deblock=1:-3:-3 / analyse=0x3:0x133 / me=tesa / subme=11 / psy=1 / psy_rd=1.10:0.00 / mixed_ref=1 / me_range=16 / chroma_me=1 / trellis=2 / 8x8dct=1 / cqm=0 / deadzone=21,11 / fast_pskip=0 / chroma_qp_offset=-2 / threads=12 / lookahead_threads=3 / sliced_threads=0 / nr=0 / decimate=1 / interlaced=0 / bluray_compat=0 / constrained_intra=0 / bframes=10 / b_pyramid=2 / b_adapt=2 / b_bias=0 / direct=3 / weightb=1 / open_gop=0 / weightp=2 / keyint=250 / keyint_min=23 / scenecut=40 / intra_refresh=0 / rc=abr / mbtree=0 / bitrate=12898 / ratetol=1.0 / qcomp=0.70 / qpmin=0 / qpmax=69 / qpstep=4 / ip_ratio=1.40 / pb_ratio=1.30 / aq=1:0.65
Language : English
Default : Yes
Forced : No
Color range : Limited
Matrix coefficients : BT.709

Audio #1
ID : 2
Format : AC-3
Format/Info : Audio Coding 3
Mode extension : CM (complete main)
Format settings, Endianness : Big
Codec ID : A_AC3
Duration : 1 h 29 min
Bit rate mode : Constant
Bit rate : 448 kb/s
Channel(s) : 6 channels
Channel positions : Front: L C R, Side: L R, LFE
Sampling rate : 48.0 kHz
Frame rate : 31.250 FPS (1536 spf)
Compression mode : Lossy
Stream size : 286 MiB (3%)
Title : MVO Omikron studio for hurtom.com
Language : Ukrainian
Default : Yes
Forced : No

Audio #2
ID : 3
Format : AC-3
Format/Info : Audio Coding 3
Mode extension : CM (complete main)
Format settings, Endianness : Big
Codec ID : A_AC3
Duration : 1 h 29 min
Bit rate mode : Constant
Bit rate : 640 kb/s
Channel(s) : 6 channels
Channel positions : Front: L C R, Side: L R, LFE
Sampling rate : 48.0 kHz
Frame rate : 31.250 FPS (1536 spf)
Compression mode : Lossy
Stream size : 409 MiB (5%)
Language : English
Default : No
Forced : No

Text
ID : 4
Format : UTF-8
Codec ID : S_TEXT/UTF8
Codec ID/Info : UTF-8 Plain Text
Duration : 1 h 28 min
Bit rate : 60 b/s
Count of elements : 1255
Stream size : 39.3 KiB (0%)
Language : English
Default : No
Forced : No

Menu
00:00:00.000 : en:00:00:00.000
00:10:17.200 : en:00:10:17.200
00:21:52.561 : en:00:21:52.561
00:25:54.970 : en:00:25:54.970
00:34:46.751 : en:00:34:46.751
00:43:14.967 : en:00:43:14.967
00:49:41.478 : en:00:49:41.478
00:57:18.477 : en:00:57:18.477
01:13:41.417 : en:01:13:41.417
01:23:20.329 : en:01:23:20.329


Авторський реліз (завантажувати можна без реєстрації)
 Трекер:    Зареєстрований   

Завантажити / скачати фільм українською



відео для новачків



 Зареєстрований:   2018-02-15 19:05
 Розмір:   8.71 GB 
 Оцінка фільму:   8.4/10 (Голосів: 7)
   
Інші релізи
   Продюсери / The Producers (1967) 1080p Ukr/Eng | sub Eng Omikron  4 / 3   10.45 GB   2018-02-15 19:01 
Omikron 
VIP


З нами з: 03.01.12
Востаннє: 16.02.18
Повідомлень: 327

2018-02-15 19:57  
Дуже круте кіно. ПодивітьсяHappy Початок незрозумілий, але потім - ржака.
chuvak_9404 
Поважний учасник


З нами з: 16.08.12
Востаннє: 17.02.18
Повідомлень: 200

2018-02-16 17:59  
А буде щось легше? Хоча б звичайний
Omikron 
VIP


З нами з: 03.01.12
Востаннє: 16.02.18
Повідомлень: 327

2018-02-16 20:10  
chuvak_9404
якщо хтось зарелізить, то так

chuvak_9404 
Поважний учасник


З нами з: 16.08.12
Востаннє: 17.02.18
Повідомлень: 200

2018-02-16 20:18  
Omikron
А у Вас немає худішого відеоряду? Бо наразі з цими двома релізами на 8.7 та на 10.45 ситуація схожа на казку "Лисиця та журавель".

Форкуш 
VIP


З нами з: 03.02.10
Востаннє: 17.02.18
Повідомлень: 2067

2018-02-16 20:50  
АВС буде?
Sehrg-Gut 
Оцифрування книг Гуртом
Оцифрування книг Гуртом


З нами з: 12.10.12
Востаннє: 17.02.18
Повідомлень: 923

2018-02-17 10:35  
"Розумна як пугутькало".(с) Пекельно смалите.)))
Ваш часовий пояс: GMT + 2 Години

Нова тема   Відповісти