Продюсери / The Producers (1967) 1080p Ukr/Eng | sub Eng — HD українською

Продюсери / The Producers (1967) 1080p Ukr/Eng | sub Eng

Нові коментарі

Нова тема   Відповісти
Останній раз роздавалося 13Mark (2018-08-16)
Автор Повідомлення
Omikron 
VIP


З нами з: 03.01.12
Востаннє: 14.08.18
Повідомлень: 327

2018-02-15 20:01  
Продюсери / The Producers (1967) 1080p Ukr/Eng | sub Eng



Жанр: комедія
Країна: США



Кіностудія: Embassy Pictures, Springtime Productions, U-M Productions, Crossbow Productions
Режисер: Мел Брукс
Актори: Зеро Мостел, Джин Вайлдер, Крістофер Хьюіт, Андреас Вуцінас, Лі Мередіт, Кеннет Марс, Дік Шон та інші.

Сюжет:
Продюсери Макс Б'ялісток і Лео Блум хочуть заробити створивши стовідсотково провальну виставу.


Перекладено та озвучено студією Омікрон спеціально для HURTOM.COM


Тривалість: 01:29:22
Якість:
Відео:
кодек:
розмір кадру: 1920х1040
бітрейт: 12,5 мб/с

Аудіо # 1:
мова: українська | Студія Омікрон
переклад: багатоголосий закадровий
кодек: -HD 5.1
бітрейт: 2720 кб/с

Аудіо # 2:
мова: англійська
переклад: оригінал
кодек: 5.1
бітрейт: 1510 кб/с

Субтитри:
мова: англійська
тип: програмні (м'які)
формат: *.srt

Скріншоти








Звіт Info

Format :
Format version : Version 4 / Version 2
File size : 10.4 GiB
Duration : 1 h 29 min
Overall bit rate : 16.7 Mb/s
Encoded date : UTC 2018-02-15 13:09:06
Writing application : v9.9.0 ('Pick Up') 64bit
Writing library : libebml v1.3.4 + v1.4.5

Video
ID : 1
Format : AVC
Format/Info : Advanced Video Codec
Format profile : [email protected]
Format settings, CABAC : Yes
Format settings, ReFrames : 4 frames
Codec ID : V_MPEG4/ISO/AVC
Duration : 1 h 29 min
Bit rate : 12.5 Mb/s
Width : 1 920 pixels
Height : 1 040 pixels
Display aspect ratio : 1.85:1
Frame rate mode : Constant
Frame rate : 23.976 (24000/1001) FPS
Color space : YUV
Chroma subsampling : 4:2:0
Bit depth : 8 bits
Scan type : Progressive
Bits/(Pixel*Frame) : 0.261
Stream size : 7.80 GiB (75%)
Writing library : core 133 r2334 a3ac64b
Encoding settings : cabac=1 / ref=4 / deblock=1:-3:-3 / analyse=0x3:0x113 / me=umh / subme=8 / psy=1 / psy_rd=1.00:0.00 / mixed_ref=1 / me_range=16 / chroma_me=1 / trellis=1 / 8x8dct=1 / cqm=0 / deadzone=21,11 / fast_pskip=1 / chroma_qp_offset=-2 / threads=12 / lookahead_threads=2 / sliced_threads=0 / nr=0 / decimate=1 / interlaced=0 / bluray_compat=0 / constrained_intra=0 / bframes=3 / b_pyramid=2 / b_adapt=2 / b_bias=0 / direct=3 / weightb=1 / open_gop=0 / weightp=2 / keyint=240 / keyint_min=24 / scenecut=40 / intra_refresh=0 / rc_lookahead=50 / rc=2pass / mbtree=1 / bitrate=12500 / ratetol=1.0 / qcomp=0.60 / qpmin=0 / qpmax=69 / qpstep=4 / cplxblur=20.0 / qblur=0.5 / ip_ratio=1.40 / aq=1:1.00
Language : English
Default : Yes
Forced : No

Audio #1
ID : 2
Format :
Format/Info : Digital Theater Systems
Format profile : MA / Core
Mode : 16
Format settings, Endianness : Big
Codec ID : A_DTS
Duration : 1 h 29 min
Bit rate mode : Variable / Constant
Bit rate : 2 720 kb/s / 1 509 kb/s
Channel(s) : 6 channels
Channel positions : Front: L C R, Side: L R, LFE
Sampling rate : 48.0 kHz
Frame rate : 93.750 FPS (512 spf)
Bit depth : 24 bits
Compression mode : Lossless / Lossy
Stream size : 1.70 GiB (16%)
Title : MVO Omikron studio for hurtom.com
Language : Ukrainian
Default : Yes
Forced : No

Audio #2
ID : 3
Format :
Format/Info : Digital Theater Systems
Mode : 16
Format settings, Endianness : Big
Codec ID : A_DTS
Duration : 1 h 29 min
Bit rate mode : Constant
Bit rate : 1 509 kb/s
Channel(s) : 6 channels
Channel positions : Front: L C R, Side: L R, LFE
Sampling rate : 48.0 kHz
Frame rate : 93.750 FPS (512 spf)
Bit depth : 24 bits
Compression mode : Lossy
Stream size : 965 MiB (9%)
Language : English
Default : No
Forced : No

Text
ID : 4
Format : UTF-8
Codec ID : S_TEXT/UTF8
Codec ID/Info : UTF-8 Plain Text
Duration : 1 h 28 min
Bit rate : 59 b/s
Count of elements : 1233
Stream size : 38.6 KiB (0%)
Language : English
Default : No
Forced : No

Menu
00:00:00.000 : en:00:00:00.000
00:10:17.200 : en:00:10:17.200
00:21:52.561 : en:00:21:52.561
00:25:54.970 : en:00:25:54.970
00:34:46.751 : en:00:34:46.751
00:43:14.967 : en:00:43:14.967
00:49:41.478 : en:00:49:41.478
00:57:18.477 : en:00:57:18.477
01:13:41.417 : en:01:13:41.417
01:23:20.329 : en:01:23:20.329


Авторський реліз (завантажувати можна без реєстрації)
 Трекер:    Зареєстрований   

Завантажити / скачати фільм українською



відео для новачків



 Зареєстрований:   2018-02-15 20:01
 Розмір:   10.45 GB 
 Оцінка фільму:   6.8/10 (Голосів: 5)
   
Інші релізи
   Продюсери / The Producers (1967) Remux 1080p Ukr/Eng | sub Ukr/Eng antik_2008  0 / 0   24.55 GB   2018-04-01 23:11 
   Продюсери / The Producers (1967) Ukr/Eng | sub Ukr/Eng antik_2008  7 / 0   1.9 GB   2018-03-30 20:09 
   Продюсери / The Producers (1967) AVC Ukr/Eng | sub Ukr/Eng antik_2008  4 / 0   2.75 GB   2018-03-30 19:56 
   Продюсери / The Producers (1967) 720p Ukr/Eng | sub Eng Omikron  0 / 0   8.71 GB   2018-02-15 20:05 
   Продюсери / The Producers (1967) Eng | sub Ukr Tanat13  1 / 0   1.3 GB   2014-01-01 02:49 
Ваш часовий пояс: GMT + 2 Години

Нова тема   Відповісти