Рей / Ray (2004) 1080p 2xUkr/Eng | Sub Eng — HD українською

Рей / Ray (2004) 1080p 2xUkr/Eng | Sub Eng

Нові коментарі

Нова тема   Відповісти
Автор Повідомлення
IronBee 
Поважний учасник


З нами з: 08.02.10
Востаннє: 20.08.18
Повідомлень: 189

2018-02-15 19:13  
Рей / Ray (2004) 1080p 2xUkr/Eng | Sub Eng

Рей / Ray (2004) 1080p 2xUkr/Eng | Sub Eng

Жанр: драма, музика, біографія
Країна: США



Кінокомпанія: Anvil Films | Baldwin Entertainment Group | Bristol Bay Productions
Режисер: Тейлор Хекфорд
Актори: Джеймі Фокс, Керрі Вашингтон, Реджіна Кінг, Кліфтон Пауелл, Гарі Дж. Леннікс, Букем Вудбайн, Онжаню Елліс, Шаррон Уоррен, С.Дж. Сандерс, Кертіс Армстронг

Сюжет:
Рей Чарльз - легендарний музикант, що в сім років втратив зір. Пристрасть до музики і віра в себе допомогли йому зробити неможливе - досягти вершин музичної кар'єри і створити унікальний стиль гри, який увійшов в історію.


Тривалість: 02:32:25
Якість:
Відео:
кодек:
розмір кадру: 1920 х 1040
бітрейт: 12.5 Mб/с

Аудіо # 1:
мова: українська
переклад: багатоголосий закадровий
кодек: 5.1
бітрейт: 384 кб/с

Аудіо # 2:
мова: українська | Так Треба Продакшн
переклад: багатоголосий закадровий
кодек: 5.1
бітрейт: 384 кб/с

Аудіо # 3:
мова: англійська
переклад: оригінал
кодек: 5.1
бітрейт: 1509 кб/с

Субтитри:
мова: англійська
тип: програмні (м'які)
формат: *.srt
Info
General
Unique ID : 124084534488855739634426258591279326891 (0x5D59CFE33680FABF9EBD8E74D831A6AB)
Complete name : D:\Films\Рей Ray (2004) 1080p 2xUkrEng Sub Eng [Hurtom].
Format :
Format version : Version 4 / Version 2
File size : 15.7 GiB
Duration : 2 h 32 min
Overall bit rate : 14.8 Mb/s
Encoded date : UTC 2018-02-15 14:54:52
Writing application : v20.0.0 ('I Am The Sun') 64-bit
Writing library : libebml v1.3.5 + v1.4.8

Video
ID : 1
Format : AVC
Format/Info : Advanced Video Codec
Format profile : [email protected]
Format settings : CABAC / 4 Ref Frames
Format settings, CABAC : Yes
Format settings, ReFrames : 4 frames
Codec ID : V_MPEG4/ISO/AVC
Duration : 2 h 32 min
Bit rate : 12.5 Mb/s
Width : 1 920 pixels
Height : 1 040 pixels
Display aspect ratio : 1.85:1
Frame rate mode : Constant
Frame rate : 23.976 (24000/1001) FPS
Color space : YUV
Chroma subsampling : 4:2:0
Bit depth : 8 bits
Scan type : Progressive
Bits/(Pixel*Frame) : 0.261
Stream size : 13.3 GiB (85%)
Writing library : core 114 r1924 08d04a4
Encoding settings : cabac=1 / ref=4 / deblock=1:-3:-3 / analyse=0x3:0x133 / me=umh / subme=10 / psy=1 / psy_rd=1.10:0.00 / mixed_ref=1 / me_range=64 / chroma_me=1 / trellis=2 / 8x8dct=1 / cqm=0 / deadzone=21,11 / fast_pskip=0 / chroma_qp_offset=-2 / threads=12 / sliced_threads=0 / nr=0 / decimate=0 / interlaced=0 / constrained_intra=0 / bframes=7 / b_pyramid=2 / b_adapt=2 / b_bias=0 / direct=1 / weightb=1 / open_gop=0 / weightp=2 / keyint=250 / keyint_min=23 / scenecut=40 / intra_refresh=0 / rc_lookahead=40 / rc=2pass / mbtree=0 / bitrate=12500 / ratetol=1.0 / qcomp=0.60 / qpmin=0 / qpmax=69 / qpstep=4 / cplxblur=20.0 / qblur=0.5 / vbv_maxrate=50000 / vbv_bufsize=62500 / nal_hrd=none / ip_ratio=1.40 / pb_ratio=1.30 / aq=1:0.80
Default : No
Forced : No
Color range : Limited
Color primaries : BT.709
Transfer characteristics : BT.709
Matrix coefficients : BT.709

Audio #1
ID : 2
Format : AC-3
Format/Info : Audio Coding 3
Codec ID : A_AC3
Duration : 2 h 32 min
Bit rate mode : Constant
Bit rate : 384 kb/s
Channel(s) : 6 channels
Channel positions : Front: L C R, Side: L R, LFE
Sampling rate : 48.0 kHz
Frame rate : 31.250 FPS (1536 SPF)
Bit depth : 16 bits
Compression mode : Lossy
Stream size : 418 MiB (3%)
Language : Ukrainian
Service kind : Complete Main
Default : Yes
Forced : No

Audio #2
ID : 3
Format : AC-3
Format/Info : Audio Coding 3
Codec ID : A_AC3
Duration : 2 h 32 min
Bit rate mode : Constant
Bit rate : 384 kb/s
Channel(s) : 6 channels
Channel positions : Front: L C R, Side: L R, LFE
Sampling rate : 48.0 kHz
Frame rate : 31.250 FPS (1536 SPF)
Bit depth : 16 bits
Compression mode : Lossy
Stream size : 418 MiB (3%)
Language : Ukrainian
Service kind : Complete Main
Default : No
Forced : No

Audio #3
ID : 4
Format :
Format/Info : Digital Theater Systems
Codec ID : A_DTS
Duration : 2 h 32 min
Bit rate mode : Constant
Bit rate : 1 509 kb/s
Channel(s) : 6 channels
Channel positions : Front: L C R, Side: L R, LFE
Sampling rate : 48.0 kHz
Frame rate : 93.750 FPS (512 SPF)
Bit depth : 24 bits
Compression mode : Lossy
Stream size : 1.61 GiB (10%)
Title : English
Language : English
Default : No
Forced : No

Text
ID : 5
Format : UTF-8
Codec ID : S_TEXT/UTF8
Codec ID/Info : UTF-8 Plain Text
Duration : 2 h 29 min
Bit rate : 69 b/s
Count of elements : 2084
Stream size : 76.9 KiB (0%)
Title : English
Language : English
Default : No
Forced : No

Menu
00:00:00.000 : uk:Глава 1
00:06:27.554 : uk:Глава 2
00:11:53.171 : uk:Глава 3
00:19:30.419 : uk:Глава 4
00:23:09.096 : uk:Глава 5
00:28:05.017 : uk:Глава 6
00:34:42.247 : uk:Глава 7
00:40:04.485 : uk:Глава 8
00:45:59.632 : uk:Глава 9
00:55:26.782 : uk:Глава 10
00:59:41.036 : uk:Глава 11
01:04:41.836 : uk:Глава 12
01:07:44.227 : uk:Глава 13
01:14:37.515 : uk:Глава 14
01:22:09.258 : uk:Глава 15
01:26:01.031 : uk:Глава 16
01:32:17.574 : uk:Глава 17
01:37:25.757 : uk:Глава 18
01:41:18.406 : uk:Глава 19
01:44:58.792 : uk:Глава 20
01:51:04.783 : uk:Глава 21
01:55:00.310 : uk:Глава 22
01:59:18.276 : uk:Глава 23
02:05:51.169 : uk:Глава 24
02:09:09.075 : uk:Глава 25
02:13:41.680 : uk:Глава 26
02:17:42.671 : uk:Глава 27
02:21:38.073 : uk:Глава 28
Скріншоти




подяка за постер дизайнеру - Microfibra
подяка за наданий запис від "Так Треба Продакшн" - robotron005 та merdiff

Джерело: &
Особиста оцінка: 10 - без зайвих вагань рекомендую всім!


Срібний реліз (на рейтинг впливає 50% завантаженого)
 Трекер:    Зареєстрований   

Завантажити / скачати фільм українською



відео для новачків



 Зареєстрований:   2018-02-15 19:13
 Розмір:   15.73 GB 
 Оцінка фільму:   10/10 (Голосів: 5)
   
Інші релізи
   Рей / Ray (2004) 2xUkr/Eng | Sub Eng Romario_O  6 / 0   2.91 GB   2009-12-25 20:53 
metrodor 
Новенький


З нами з: 26.11.10
Востаннє: 23.07.18
Повідомлень: 12

2018-02-16 16:26  
Дякую!!!
А чи варто очікувати 720 чи AVC?

Ваш часовий пояс: GMT + 2 Години

Нова тема   Відповісти