Нічна поліцейська облава у кабаре Мінскі / The Night They Raided Minsky's (1968) 1080p-mini Ukr/Eng

Нові коментарі

Нова тема   Відповісти
Автор Повідомлення
Anonymous 







2018-02-15 15:46  
Нічна поліцейська облава у кабаре Мінскі / The Night They Raided Minsky's (1968) 1080p-mini Ukr/Eng

Нічна поліцейська облава у кабаре Мінскі / The Night They Raided Minsky's (1968) 1080p-mini Ukr/Eng


Жанр: комедія
Країна: США



Кіностудія / кінокомпанія: Tandem Productions
Режисер: Вільям Фрідкін / William Friedkin
Актори: Джейсон Робардс / Jason Robards, Брітт Екланд / Britt Ekland, Норман Уісдом / Norman Wisdom, Форрест Такер / Forrest Tucker...

Сюжет:
Сільська дівчина Рахель приїжджає в Нью-Йорк щоб стати танцівницею. Але її концертний номер «Біблійний танець» зовсім не вписується в програму шоумена Біллі Мінскі.
Однак комік Раймонд вважає, що виступ Рахель можна зробити смішним і представляє її як паризьку сенсацію - Мадам Фіфі.
І ось на шоу розпродані всі квитки, а татусь Рахель розшукує втікачку по всьому місту.


Тривалість: 01:39:06
Якість: 1080p
Відео:
кодек:
розмір кадру: 1920 х 1080
бітрейт: 2500 кб/с
частота кадрів: 23.976 к/с (fps)

Аудіо #1:
мова: українська
переклад: багатоголосий закадровий
кодек: 2.0
бітрейт: 192 кб/с
запис звуку з каналу: АМС
назва доріжки на сервері: The Night They Raided Minsky's (1968).01h39m04s.[MVO-AMC].[2.0-192].23.976fps.[Hurtom-urij546724].

Аудіо #2:
мова: англійська
переклад: оригінал
кодек: 2.0
бітрейт: 224 кб/с
Media info:
General
Complete name : E:\HD1\The Night They Raided Minsky's (1968) [ukr.AMC_eng_2.0] 1080p [Hurtom] by urij546724.mp4
Format : MPEG-4
Format profile : Base Media
Codec ID : isom
File size : 2.02 GiB
Duration : 1h 39mn
Overall bit rate mode : Variable
Overall bit rate : 2 922 Kbps
Encoded date : UTC 2018-02-15 11:46:46
Tagged date : UTC 2018-02-15 11:46:46
Writing application : Yamb 2.1.0.0 [http://yamb.unite-video.com]

Video
ID : 1
Format : AVC
Format/Info : Advanced Video Codec
Format profile : [email protected]
Format settings, CABAC : Yes
Format settings, ReFrames : 4 frames
Codec ID : avc1
Codec ID/Info : Advanced Video Coding
Duration : 1h 39mn
Bit rate : 2 500 Kbps
Maximum bit rate : 13.0 Mbps
Width : 1 920 pixels
Height : 1 040 pixels
Display aspect ratio : 1.85:1
Frame rate mode : Constant
Frame rate : 23.976 fps
Color space : YUV
Chroma subsampling : 4:2:0
Bit depth : 8 bits
Scan type : Progressive
Bits/(Pixel*Frame) : 0.052
Stream size : 1.73 GiB (86%)
Writing library : core 148 r2638M 7599210
Encoding settings : cabac=1 / ref=4 / deblock=1:-1:-1 / analyse=0x3:0x113 / me=umh / subme=9 / psy=1 / psy_rd=1.00:0.15 / mixed_ref=1 / me_range=24 / chroma_me=1 / trellis=2 / 8x8dct=1 / cqm=0 / deadzone=21,11 / fast_pskip=1 / chroma_qp_offset=-3 / threads=32 / lookahead_threads=4 / sliced_threads=0 / nr=0 / decimate=1 / interlaced=0 / bluray_compat=0 / constrained_intra=0 / bframes=3 / b_pyramid=2 / b_adapt=2 / b_bias=0 / direct=3 / weightb=1 / open_gop=0 / weightp=2 / keyint=250 / keyint_min=25 / scenecut=40 / intra_refresh=0 / rc_lookahead=50 / rc=2pass / mbtree=1 / bitrate=2500 / ratetol=1.0 / qcomp=0.60 / qpmin=0 / qpmax=69 / qpstep=4 / cplxblur=20.0 / qblur=0.5 / vbv_maxrate=31250 / vbv_bufsize=31250 / nal_hrd=none / filler=0 / ip_ratio=1.40 / aq=3:1.00
Language : Ukrainian
Encoded date : UTC 2016-12-01 01:30:20
Tagged date : UTC 2018-02-15 11:54:05

Audio #1
ID : 2
Format : AC-3
Format/Info : Audio Coding 3
Mode extension : CM (complete main)
Format settings, Endianness : Big
Codec ID : ac-3
Duration : 1h 39mn
Bit rate mode : Constant
Bit rate : 192 Kbps
Channel count : 2 channels
Channel positions : Front: L R
Sampling rate : 48.0 KHz
Bit depth : 16 bits
Compression mode : Lossy
Stream size : 136 MiB (7%)
Language : Ukrainian
Encoded date : UTC 2018-02-15 11:50:10
Tagged date : UTC 2018-02-15 11:54:05

Audio #2
ID : 3
Format :
Format/Info : Advanced Audio Codec
Format profile : LC
Codec ID : 40
Duration : 1h 39mn
Bit rate mode : Variable
Bit rate : 224 Kbps
Maximum bit rate : 229 Kbps
Channel count : 2 channels
Channel positions : Front: L R
Sampling rate : 48.0 KHz
Compression mode : Lossy
Stream size : 159 MiB (8%)
Language : English
Encoded date : UTC 2018-02-15 11:50:29
Tagged date : UTC 2018-02-15 11:54:05
Скріншоти:





Трейлер:
Семпл
Джерело 1_________Джерело 2_________Джерело 3_________Джерело 4_________Джерело 5
У випадку, якщо з усіх джерел семпл видалять, прохання повідомити мені у ПРИВАТ


Подяка:

1. Пану Sando7 за запис звуку з ТБ.


Джерело: &
Проект створено за підтримки КПК"UA". Детальніше:

Команда поширення контенту [UA]





Учасники

21jumpstreet - моніторинг AMC
Sando7 - запис сирців
slavik_v_z - запис сирців
Arsenfpu - обробка та створення релізів
dilnix - обробка та створення релізів
krigg070 - обробка та створення релізів
[email protected] - координатор


Хто потрібнен?
  • Людина, що має цифрове ТБ від Воля із каналом АМС

  • Людина, що має обладнання для запису з OTT від Воля

  • Умілець, що файно синхронізує звук

  • Користувач, що має навички перекодування відео

  • Спостерігач для моніторингу телепрограми ТБ від Воля

  • Чистий релізер контенту на Гуртом

    Актуальність

    В даний час кількість серіалів та фільмів з українським озвученням не б'є рекорди, тому потрібно поширювати україномовний контент, що зараз так необхідний нашим громадянам!) Зокрема записуючи його з каналу AMC, який отримає українську мову по кабельному від Воля.
Як приєднатися?

Написати в темі, що бажаєте внести власну лепту в поширенні контенту в складі команди КПК[UA].

Увага! Цей реліз знаходиться тут, бо правила HD розділу не дозволяють викласти його там. Якщо з'явиться краще відео, то реліз буде оновлено!


Срібний реліз (на рейтинг впливає 50% завантаженого)
 Трекер:    Зареєстрований   

Завантажити / скачати фільм українською



відео для новачків



 Зареєстрований:   2018-02-15 17:44
 Розмір:   2.02 GB 
 Оцінка фільму:   5.5/10 (Голосів: 4)
 Прохання залишати коментарі і не тікати з роздачі.
   
igor911 
Відео Гуртом
Відео Гуртом


З нами з: 18.01.08
Востаннє: 17.02.18
Повідомлень: 9281

2018-02-15 15:49  
Anonymous написано:
1080p-mini

заборонено правилами.
Anonymous написано:
Bits/(Pixel*Frame) : 0.052

для 1080 має бути не менше 0,16 або у випадку CRF - не більше 21.

Anonymous 







2018-02-15 15:53  
igor911 написано:
для 1080 має бути не менше 0,16 або у випадку CRF - не більше 21.

То видаляй, інших ріпів немає. Або знайди мені кращий. Це єдине що зміг завантажити з BD.
Хіба викладу поганенький HDTV в SD

igor911 
Відео Гуртом
Відео Гуртом


З нами з: 18.01.08
Востаннє: 17.02.18
Повідомлень: 9281

2018-02-15 15:58  
Anonymous написано:
інших ріпів немає

є The.Night.They.Raided.Minskys.1968.1080p.BluRay.-SADPANDA з бітрейтом 9973 або викладай в SD або заливай доріжку на сервер.

Anonymous 







2018-02-15 17:02  
igor911, то завантаж його, там сідерів немає, в мене більше тижня стояло на 99.2% у подібному ріпі.

igor911 написано:
викладай в SD

Тобто? В такому вигляді?

igor911 
Відео Гуртом
Відео Гуртом


З нами з: 18.01.08
Востаннє: 17.02.18
Повідомлень: 9281

2018-02-15 17:31  
качай і викладай avi або інші релізи, що підходять за правилами.

Додано через 2 хвилини 22 секунди:

Anonymous написано:
стояло на 99.2%

іноді буває, що ті долі відсотка - непотрібні семпли, саби, описи, постери, скріншоти і т.д. в папці роздачі.

Anonymous 







2018-02-15 17:43  
igor911 написано:
качай і викладай avi або інші релізи, що підходять за правилами.

Тобто замість качати ? Бо на avi теж немає сідів.

igor911 написано:
іноді буває

А іноді страуси літають. Я ж не перший реліз роблю. Там якраз не вистачає близько 200 Мб в основному файлі. Звести можна, але в фільмі буде 5-6 глюків і пропущено клька хвилин + треба буде витратити кілька годин на такий геморой.

bot 
робот


З нами з: 30.09.07
Востаннє: 26.05.05
Повідомлень: 18448

2018-02-15 17:44  
Тему перенесено з Неоформлене відео до форуму Фільми

Причина перенесення: Хай буде тут, якщо в HD не підходить. HDTV викладати не маю бажання.
urij546724

sokeel 
VIP


З нами з: 26.06.10
Востаннє: 17.02.18
Повідомлень: 346

2018-02-15 19:57  
Anonymous
Будь ласка, викладіть українську доріжку окремим файлом.

Anonymous 







2018-02-15 20:40  
sokeel, ось:
urij546724 написано:
назва доріжки на сервері: The Night They Raided Minsky's (1968).01h39m04s.[MVO-AMC].[2.0-192].23.976fps.[Hurtom-urij546724].

Ваш часовий пояс: GMT + 2 Години

Нова тема   Відповісти