РЕД / RED (2010) Remux 1080p Ukr/Eng | Sub Ukr/Eng

Нові коментарі

Нова тема   Відповісти
Автор Повідомлення
Devil_my_cry 
Частий відвідувач


З нами з: 26.06.10
Востаннє: 09.06.20
Повідомлень: 43

2018-02-15 16:20  
РЕД / RED (2010) Remux 1080p Ukr/Eng | Sub Ukr/Eng

РЕД / RED (2010) Remux 1080p Ukr/Eng | Sub Ukr/Eng
Альтернативний український постер:



Жанр: екшн, бойовик, комедія
Країна: США



Кінокомпанія: Summit Entertainment, Di Bonaventura Pictures, DC Entertainment
Режисер: Роберт Швентке
Актори: Брюс Вілліс, Марі-Луїз Паркер, Морган Фріман, Джон Малкович, Хелен Міррен

Сюжет:
Френк Мозес, оперативник ЦРУ, після відставки спокійно живе, поки одного разу загін важкоозброєних бійців не приходить до нього в будинок. Він пускається у втечу, прихопивши з собою Сару — клерка своєї пенсійної контори, яка теж стала ціллю. Щоб розібратися що відбувається, Френк звертається до старих колег — таких же відставників, як і він.


Тривалість: 01:51:10
Якість: Remux 1080p
Відео:
кодек:
розмір кадру: 1920x1080
бітрейт: 28 Мб/с

Аудіо # 1:
мова: українська
переклад: багатоголосий закадровий (псевдодубляж) | студія Tretyakoff production на замовлення Aurora Distribution
кодек: 5.1
бітрейт: 1510 кб/с
примітка 1: джерело цієї саморобної доріжки: https://toloka.to/t85042 , за основу взято запис з ТРК Україна, хоча є якісніший запис з Воля-Кіно HD.
примітка 2: з цим кінотеатральним озвученням також показували по Воля-Кіно HD, 2+2, ТРК Україна
Інформація про озвучення:

Ролі озвучили: Брюс Вілліс/Френк Мозес — Михайло Жонін, Мері Луїз-Паркер/Сара Рос — Юлія Перенчук, Браян Кокс/Іван Сіманов — Анатолій Пашнін, Карл Урбан/Вільям Купер — Михайло Тишин, Морґан Фрімен/Джо — Олег Лепенець, Джон Малковіч/Марвін — Михайло Кришталь, Микола Карцев? та інші.
Аудіо # 2:
мова: українська
переклад: багатоголосий закадровий (псевдодубляж) | студія Tretyakoff production на замовлення Aurora Distribution
кодек: 2.0
бітрейт: 192 кб/с

Аудіо # 3:
мова: англійська
переклад: оригінал
кодек: -HD 7.1
бітрейт: 4933 кб/с

Субтитри:
мова: англійська
тип: програмні (м'які)
формат: *.pgs
Info
Video
ID : 1
Format : AVC
Format/Info : Advanced Video Codec
Format profile : [email protected]
Format settings : CABAC / 2 Ref Frames
Format settings, CABAC : Yes
Format settings, ReFrames : 2 frames
Codec ID : V_MPEG4/ISO/AVC
Duration : 1 h 51 min
Bit rate mode : Variable
Bit rate : 28.0 Mb/s
Width : 1 920 pixels
Height : 1 080 pixels
Display aspect ratio : 16:9
Frame rate mode : Constant
Frame rate : 23.976 (24000/1001) FPS
Color space : YUV
Chroma subsampling : 4:2:0
Bit depth : 8 bits
Scan type : Progressive
Bits/(Pixel*Frame) : 0.564
Stream size : 21.8 GiB (81%)
Language : English
Default : Yes
Forced : No

Audio #1
ID : 2
Format :
Format/Info : Digital Theater Systems
Codec ID : A_DTS
Duration : 1 h 51 min
Bit rate mode : Constant
Bit rate : 1 509 kb/s
Channel(s) : 6 channels
Channel positions : Front: L C R, Side: L R, LFE
Sampling rate : 48.0 kHz
Frame rate : 93.750 FPS (512 SPF)
Bit depth : 24 bits
Compression mode : Lossy
Stream size : 1.17 GiB (4%)
Title : [email protected] 1510 kbps | Дубляж (Ukrainian)
Language : Ukrainian
Default : Yes
Forced : Yes

Audio #2
ID : 3
Format : AC-3
Format/Info : Audio Coding 3
Codec ID : A_AC3
Duration : 1 h 51 min
Bit rate mode : Constant
Bit rate : 192 kb/s
Channel(s) : 2 channels
Channel positions : Front: L R
Sampling rate : 48.0 kHz
Frame rate : 31.250 FPS (1536 SPF)
Bit depth : 16 bits
Compression mode : Lossy
Stream size : 153 MiB (1%)
Title : 2.0 @ 192 kbps | Дубляж (Ukrainian)
Language : Ukrainian
Service kind : Complete Main
Default : No
Forced : No

Audio #3
ID : 4
Format : TrueHD
Format profile : TrueHD+Atmos / TrueHD
Codec ID : A_TRUEHD
Duration : 1 h 51 min
Bit rate mode : Variable
Bit rate : 4 933 kb/s
Maximum bit rate : 8 268 kb/s
Channel(s) : Object Based / 8 channels
Channel positions : Object Based / Front: L C R, Side: L R, Back: L R, LFE
Sampling rate : / 48.0 kHz
Frame rate : 1 200.000 FPS (40 SPF)
Compression mode : Lossless
Delay relative to video : 1 ms
Stream size : 3.83 GiB (14%)
Title : TrueHD Atmos 8 ch
Language : English
Default : No
Forced : No

Text
ID : 5
Format : PGS
Muxing mode : zlib
Codec ID : S_HDMV/PGS
Codec ID/Info : Picture based subtitle format used on BDs/HD-DVDs
Duration : 1 h 43 min
Bit rate : 22.5 kb/s
Count of elements : 2675
Stream size : 16.7 MiB (0%)
Title : SDH, PGS (directly from Blu-Ray)
Language : English
Default : No
Forced : No
Скріншоти





Джерело: &
Особиста оцінка: 9 - давно не бачив настільки якісне кіно


Золотий реліз (завантажене не впливає на рейтинг)
 Трекер:    Зареєстрований   

Завантажити / скачати фільм українською



відео для новачків



 Зареєстрований:   2018-02-15 16:44
 Розмір:   26.97 GB 
 Оцінка фільму:   9.9/10 (Голосів: 7)
   
Інші релізи
   Замучений / The Tortured (2010) 1080p Ukr/Eng | Sub Eng Timm  2 / 0   8.82 GB   2020-07-12 19:47 
   РЕД / RED (2010) AVC 2xUkr/Eng | Sub Eng Sando7  8 / 0   1.96 GB   2019-05-25 20:21 
   РЕД / RED (2010) UHD Remux 4K 2160p HDR H.265 Ukr/Eng | Sub Ukr/Eng Devil_my_cry  4 / 0   62.77 GB   2018-02-16 12:41 
   РЕД / RED (2010) багатоголосе закадрове озвучення (псевдодубляж) [5.1 ] mutomba  0 / 0   1.17 GB   2018-01-24 22:37 
   РЕД / RED (2010) AVC pahryb  2 / 0   783 MB   2017-09-23 13:35 
   Замучений / The Tortured (2010) Ukr/Eng patriot2305  4 / 0   1.45 GB   2015-04-18 14:40 
   РЕД / Red (2010) Ukr/Eng | Sub Eng xslim  7 / 0   2.03 GB   2012-06-24 05:44 
   РЕД / Red (2010) 1080p Ukr/Eng | Sub Ukr/Eng Kuzmenko  6 / 0   8.24 GB   2011-01-14 14:28 
crazzzzy 
Новенький


З нами з: 05.12.15
Востаннє: 14.07.20
Повідомлень: 12

2019-01-18 19:18  
Ніякий тут не дубляж, а банальний войсовер - за українським текстом чутно англійський орігінал. Я розчарований ((
igor911 
Модератор відео


З нами з: 18.01.08
Востаннє: 14.07.20
Повідомлень: 14889

2019-01-18 19:40  
crazzzzy написано:
Ніякий тут не дубляж

виправив в описі та додав інформацію про озвучення

Ваш часовий пояс: GMT + 2 Години

Нова тема   Відповісти