Бетховен 4 / Beethoven`s 4th (2001) 1080p Ukr/Eng

Нові коментарі

Нова тема   Відповісти
Автор Повідомлення
boroznaya 
VIP


З нами з: 02.11.12
Востаннє: 23.02.18
Повідомлень: 2583

2018-02-15 11:00  
Бетховен 4 / Beethoven`s 4th (2001) 1080p Ukr/Eng

Бетховен 4 / Beethoven`s 4th (2001) 1080p Ukr/Eng


Жанр: комедія, дитячий, сімейний, драма
Країна: США



Кінокомпанія: Universal Family and Home Entertainment, Universal Pictures
Режисер: Девід Міккі Еванс
Актори: Джадж Райнхолд, Джулія Свіні, Мікаела Ґелоу, Джо Пічлер

Сюжет:
Галаслива сімейка Ньютонів вже давно звикла до витівок веселуна Бетховена, але раптового його перетворення у вишуканого і чудово дресированого собаку, вони аж ніяк не очікували! Все почалося з того, що під час звичайної прогулянки в парку, Бетховен зустрівся з сенбернаром по кличці Мікеланджело, схожим на нього, як дві краплі води. На відміну від нашого пустуна-приятеля, Мікеланджело виявився зразковим псом з прекрасними манерами. І ось трапляється так, що два красені-собаки вирішують помінятися місцями! Сміховинний телепень Ньютонів раптом перетворюється в дисциплінованого, «зразкового» пса. Ну а Бетховен, у свою чергу, дасть «перцю» своїм новим господарям - естетичній сім'ї Седжвіків! ...


Тривалість: 01:33:38
Якість: 1080p

Відео:
кодек:
розмір кадру: 1920x1080
бітрейт: 10200 кб/с

Аудіо # 1:
мова: українська
переклад: багатоголосий закадровий
кодек: 2.0
бітрейт: 192 кб/с

Аудіо # 2:
мова: англійська
переклад: оригінал
кодек: 5.1
бітрейт: 640 кб/с

Джерело озвучення:
Info
D:\Завантаження\Beethoven's 4th (2001) [Ukr, Eng] 1080p [Hurtom].
General
Unique ID : 324934929697393986527864741051052137135 (0xF47430EC76D5575B430029C69EC51AAF)
Complete name : D:\Завантаження\Beethoven's 4th (2001) [Ukr, Eng] 1080p [Hurtom].
Format :
Format version : Version 4 / Version 2
File size : 7.39 GiB
Duration : 1h 33mn
Overall bit rate mode : Variable
Overall bit rate : 11.3 Mbps
Encoded date : UTC 2018-02-15 07:56:28
Writing application : mkvmerge v20.0.0 ('I Am The Sun') 64-bit
Writing library : libebml v1.3.5 + libmatroska v1.4.8
DURATION : 01:33:38.752000000
NUMBER_OF_FRAMES : 175586
NUMBER_OF_BYTES : 449500160
_STATISTICS_WRITING_APP : mkvmerge v20.0.0 ('I Am The Sun') 64-bit
_STATISTICS_WRITING_DATE_UTC : 2018-02-15 07:56:28
_STATISTICS_TAGS : BPS DURATION NUMBER_OF_FRAMES NUMBER_OF_BYTES
Video #1
ID : 1
Format : AVC
Format/Info : Advanced Video Codec
Format profile : [email protected]
Format settings, CABAC : Yes
Format settings, ReFrames : 4 frames
Codec ID : V_MPEG4/ISO/AVC
Duration : 1h 33mn
Bit rate mode : Variable
Bit rate : 10.2 Mbps
Maximum bit rate : 15.0 Mbps
Width : 1 920 pixels
Height : 1 080 pixels
Display aspect ratio : 16:9
Frame rate : 23.976 fps
Color space : YUV
Chroma subsampling : 4:2:0
Bit depth : 8 bits
Scan type : Progressive
Bits/(Pixel*Frame) : 0.206
Stream size : 6.70 GiB (91%)
Default : Yes
Forced : No
Color primaries : BT.709-5, BT.1361, IEC 61966-2-4, SMPTE RP177
Transfer characteristics : BT.709-5, BT.1361
Matrix coefficients : BT.709-5, BT.1361, IEC 61966-2-4 709, SMPTE RP177
Audio #2
ID : 2
Format : AC-3
Format/Info : Audio Coding 3
Mode extension : CM (complete main)
Codec ID : A_AC3
Duration : 1h 33mn
Bit rate mode : Constant
Bit rate : 192 Kbps
Channel(s) : 2 channels
Channel positions : Front: L R
Sampling rate : 48.0 KHz
Bit depth : 16 bits
Compression mode : Lossy
Delay relative to video : 3s 0ms
Stream size : 129 MiB (2%)
Language : Ukrainian
Default : No
Forced : No
Audio #3
ID : 3
Format : AC-3
Format/Info : Audio Coding 3
Mode extension : CM (complete main)
Codec ID : A_AC3
Duration : 1h 33mn
Bit rate mode : Constant
Bit rate : 640 Kbps
Channel(s) : 6 channels
Channel positions : Front: L C R, Side: L R, LFE
Sampling rate : 48.0 KHz
Bit depth : 16 bits
Compression mode : Lossy
Stream size : 429 MiB (6%)
Language : English
Default : No
Forced : No
Скріншоти







Джерело:
Особиста оцінка: 6 - третій сорт - не брак


Срібний реліз (на рейтинг впливає 50% завантаженого)
 Трекер:    Зареєстрований   

Завантажити / скачати фільм українською



відео для новачків



 Зареєстрований:   2018-02-15 18:02
 Розмір:   7.39 GB 
 Оцінка фільму:   4.5/10 (Голосів: 4)
   
bot 
робот


З нами з: 30.09.07
Востаннє: 26.05.05
Повідомлень: 18503

2018-02-15 11:01  
Тему перенесено з Фільми в HD до форуму Анонси релізів


boroznaya

boroznaya 
VIP


З нами з: 02.11.12
Востаннє: 23.02.18
Повідомлень: 2583

2018-02-15 11:05  
Дочекайтесь! Реліз ввечері!
игорь 25 
Новенький


З нами з: 02.10.17
Востаннє: 20.02.18
Повідомлень: 14

2018-02-15 11:31  
А друга та п'ята частина буде у такій якості?
teelmaster1 
Свій


З нами з: 27.12.16
Востаннє: 23.02.18
Повідомлень: 131

2018-02-15 11:38  
Старенькій фільм но подивитись можна

Пітримати наступну частину шов WWE

boroznaya 
VIP


З нами з: 02.11.12
Востаннє: 23.02.18
Повідомлень: 2583

2018-02-15 12:12  
игорь 25
Друга частина вже є https://toloka.to/t87469
Щодо п'ятої, то інформації про її вихїд в HD немає...
Як тільки-но з'явиться - обов'язково викладу!

teelmaster1
Так, Ваша правда! Тим більше в хорошій якості!

игорь 25 
Новенький


З нами з: 02.10.17
Востаннє: 20.02.18
Повідомлень: 14

2018-02-15 13:43  
до речі, в 2014 р вийшов фільм "скарби бетховена" і досі немає перекладу
boroznaya 
VIP


З нами з: 02.11.12
Востаннє: 23.02.18
Повідомлень: 2583

2018-02-15 14:43  
игорь 25
Дуже шкода... Надіюсь, з часом його покажуть по українському ТБ!

bot 
робот


З нами з: 30.09.07
Востаннє: 26.05.05
Повідомлень: 18503

2018-02-15 17:35  
Тему перенесено з Анонси релізів до форуму Фільми в HD


boroznaya

Ваш часовий пояс: GMT + 2 Години

Нова тема   Відповісти