Бетховен 3 / Beethoven's 3rd (2000) 1080p Ukr/Eng

Нові коментарі

Нова тема   Відповісти
Автор Повідомлення
boroznaya 
VIP


З нами з: 02.11.12
Востаннє: 23.02.18
Повідомлень: 2583

2018-02-15 10:33  
Бетховен 3 / Beethoven's 3rd (2000) 1080p Ukr/Eng

Бетховен 3 / Beethoven's 3rd (2000) 1080p Ukr/Eng


Жанр: комедія, дитячий, сімейний, драма
Країна: США



Кінокомпанія: Universal Studios
Режисер: Девід М. Еванс
Актори: Джадж Рейнхолд, Джулія Свіні, Джо Пічлер, Джеймс Марш, Ґреґ Піттс, Мікаела Ґалло

Сюжет:
Для голови родини Ньютонів, Річарда, довга поїздка до родичів - улюблене заняття. А для його галасливої сім'ї - це утомлива, нестерпно нудна справа. Проте все разючим чином змінюється, коли "на борт" сідає новий кошлатий пасажир з сумними очима. Ним, як не дивно, виявляється наш старий друг Бетховен, який не проти прогулятися по країні і поглянути світ. Як Ви, напевно, вже здогадуєтеся, в компанії з ним нудьгувати вже нікому не доведеться!


Тривалість: 01:38:15
Якість: 1080p

Відео:
кодек:
розмір кадру: 1920x1080
бітрейт: 11900 кб/с

Аудіо # 1:
мова: українська
переклад: багатоголосий закадровий
кодек: 2.0
бітрейт: 192 кб/с

Аудіо # 2:
мова: англійська
переклад: оригінал
кодек: 5.1
бітрейт: 640 кб/с

Джерело озвучення:
Info
D:\Завантаження\Beethoven's 3rd (2000) [Ukr, Eng] 1080p [Hurtom].
General
Unique ID : 296751579169315576993872594710638979741 (0xDF404675E888BF16C7C2A69456696A9D)
Complete name : D:\Завантаження\Beethoven's 3rd (2000) [Ukr, Eng] 1080p [Hurtom].
Format :
Format version : Version 4 / Version 2
File size : 8.88 GiB
Duration : 1h 38mn
Overall bit rate mode : Variable
Overall bit rate : 12.9 Mbps
Encoded date : UTC 2018-02-15 07:31:04
Writing application : mkvmerge v20.0.0 ('I Am The Sun') 64-bit
Writing library : libebml v1.3.5 + libmatroska v1.4.8
DURATION : 01:38:14.976000000
NUMBER_OF_FRAMES : 184218
NUMBER_OF_BYTES : 471598080
_STATISTICS_WRITING_APP : mkvmerge v20.0.0 ('I Am The Sun') 64-bit
_STATISTICS_WRITING_DATE_UTC : 2018-02-15 07:31:04
_STATISTICS_TAGS : BPS DURATION NUMBER_OF_FRAMES NUMBER_OF_BYTES
Video #1
ID : 1
Format : AVC
Format/Info : Advanced Video Codec
Format profile : [email protected]
Format settings, CABAC : Yes
Format settings, ReFrames : 4 frames
Codec ID : V_MPEG4/ISO/AVC
Duration : 1h 38mn
Bit rate mode : Variable
Bit rate : 11.9 Mbps
Maximum bit rate : 15.0 Mbps
Width : 1 920 pixels
Height : 1 080 pixels
Display aspect ratio : 16:9
Frame rate : 23.976 fps
Color space : YUV
Chroma subsampling : 4:2:0
Bit depth : 8 bits
Scan type : Progressive
Bits/(Pixel*Frame) : 0.238
Stream size : 8.14 GiB (92%)
Default : Yes
Forced : No
Color primaries : BT.709-5, BT.1361, IEC 61966-2-4, SMPTE RP177
Transfer characteristics : BT.709-5, BT.1361
Matrix coefficients : BT.709-5, BT.1361, IEC 61966-2-4 709, SMPTE RP177
Audio #2
ID : 2
Format : AC-3
Format/Info : Audio Coding 3
Mode extension : CM (complete main)
Codec ID : A_AC3
Duration : 1h 38mn
Bit rate mode : Constant
Bit rate : 192 Kbps
Channel(s) : 2 channels
Channel positions : Front: L R
Sampling rate : 48.0 KHz
Bit depth : 16 bits
Compression mode : Lossy
Delay relative to video : 4s 0ms
Stream size : 135 MiB (1%)
Language : Ukrainian
Default : No
Forced : No
Audio #3
ID : 3
Format : AC-3
Format/Info : Audio Coding 3
Mode extension : CM (complete main)
Codec ID : A_AC3
Duration : 1h 38mn
Bit rate mode : Constant
Bit rate : 640 Kbps
Channel(s) : 6 channels
Channel positions : Front: L C R, Side: L R, LFE
Sampling rate : 48.0 KHz
Bit depth : 16 bits
Compression mode : Lossy
Stream size : 450 MiB (5%)
Language : English
Default : No
Forced : No
Скріншоти







Джерело:
Особиста оцінка: 6 - третій сорт - не брак



Срібний реліз (на рейтинг впливає 50% завантаженого)
 Трекер:    Зареєстрований   

Завантажити / скачати фільм українською



відео для новачків



 Зареєстрований:   2018-02-15 17:39
 Розмір:   8.88 GB 
 Оцінка фільму:   5.2/10 (Голосів: 5)
   
Ваш часовий пояс: GMT + 2 Години

Нова тема   Відповісти