Великі кішки (3 серії з 3) / Big Cats (2018) Ukr/Eng | Sub Ukr/Eng

Нові коментарі

Нова тема   Відповісти
Автор Повідомлення
Anonymous 







2018-02-14 23:22  

AVC | 1080p


Великі кішки (3 серії з 3) / Big Cats (2018) Ukr/Eng | Sub Ukr/Eng

Великі кішки (3 серії з 3) / Big Cats (2018) Ukr/Eng | Sub Ukr/Eng


Жанр: документальний
Країна: Велика Британія, Франція, США



Телеканал / кіностудія: BBC
Режисер: Сара Дуглас / Sara Douglas
Ведучий: Берті Карвель / Bertie Carvel

Сюжет:
У Танзанії, в національному парку Руаха, леви створюють великі суперпрайди для того, щоб полювати на справжніх велетнів. Серед усіх кішок леви вирізняються своєю незвичністю, бо вони єдині, хто живе групами. Їхня сила у кількості, що додає завзяття при полюванні на найлютішу здобич.


Тривалість: 1 серія: 58 хв. (цілком серій: 3)
Перелік серій

1. Перша серія
2. Друга серія
3. Третя серія
Якість: [Hurtom]
Відео:
кодек:
розмір кадру: 720 х 400
бітрейт: 2198 кб/с

Аудіо # 1:
мова: українська
переклад: одноголосий закадровий
кодек: 2.0
бітрейт: 224 кб/с
Інформація про озвучення
Переклад: Тетяна Равва
Текст читав: Михайло Войчук
Синхронізація: Валерій Логвін
Аудіо # 2:
мова: англійська
переклад: оригінал
кодек: 2.0
бітрейт: 224 кб/с

Субтитри # 1:
мова: українська
тип: програмні (м'які)
формат: *.srt

Субтитри # 2:
мова: англійська
тип: програмні (м'які)
формат: *.srt
Info
Код:
General
Complete name               : E03 - Big Cats (2018) [Ukr,Eng] [Hurtom].avi
Format                      : AVI
Format/Info                 : Audio Video Interleave
File size                   : 1.09 GiB
Duration                    : 58 min 33 s
Overall bit rate            : 2 661 kb/s
Movie name                  : Великі кішки (Серія 3) / Big Cats (2018) E03 [Ukr,Eng sub.Ukr,Eng] [Hurtom]
Writing application         : VirtualDubModUkr 1.5.10.2 (build 2542/release)
Writing library             : VirtualDubMod build 2542/release
Comment                     : https://toloka.to/t87581 12.03.2018

Video
ID                          : 0
Format                      : MPEG-4 Visual
Format profile              : Advanced [email protected]
Format settings             : BVOP1
Format settings, BVOP       : 1
Format settings, QPel       : No
Format settings, GMC        : No warppoints
Format settings, Matrix     : Default (MPEG)
Codec ID                    :
Codec ID/Hint               :
Duration                    : 58 min 33 s
Bit rate                    : 2 198 kb/s
Width                       : 720 pixels
Height                      : 400 pixels
Display aspect ratio        : 16:9
Frame rate                  : 25.000 FPS
Color space                 : YUV
Chroma subsampling          : 4:2:0
Bit depth                   : 8 bits
Scan type                   : Progressive
Compression mode            : Lossy
Bits/(Pixel*Frame)          : 0.305
Stream size                 : 921 MiB (83%)
Writing library             : 67

Audio #1
ID                          : 1
Format                      : AC-3
Format/Info                 : Audio Coding 3
Codec ID                    : 2000
Duration                    : 58 min 32 s
Bit rate mode               : Constant
Bit rate                    : 224 kb/s
Channel(s)                  : 2 channels
Channel positions           : Front: L R
Sampling rate               : 48.0 kHz
Frame rate                  : 31.250 FPS (1536 SPF)
Bit depth                   : 16 bits
Compression mode            : Lossy
Stream size                 : 93.8 MiB (8%)
Alignment                   : Split accross interleaves
Interleave, duration        : 40  ms (1.00 video frame)
Interleave, preload duratio : 500  ms
Title                       : AVO [Hurtom]
Service kind                : Complete Main

Audio #2
ID                          : 2
Format                      : AC-3
Format/Info                 : Audio Coding 3
Codec ID                    : 2000
Duration                    : 58 min 32 s
Bit rate mode               : Constant
Bit rate                    : 224 kb/s
Channel(s)                  : 2 channels
Channel positions           : Front: L R
Sampling rate               : 48.0 kHz
Frame rate                  : 31.250 FPS (1536 SPF)
Bit depth                   : 16 bits
Compression mode            : Lossy
Stream size                 : 93.8 MiB (8%)
Alignment                   : Split accross interleaves
Interleave, duration        : 40  ms (1.00 video frame)
Interleave, preload duratio : 500  ms
Title                       : Original
Service kind                : Complete Main


ДЛЯ ОЗВУЧЕННЯ ЦЬОГО МІНІ-СЕРІАЛУ ПРОВОДИВСЯ ЗБІР КОШТІВ - 3000 грн.
Статистику збору можна переглянути там: https://toloka.to/t87563


Джерело:
Особиста оцінка: 10 - без зайвих вагань рекомендую всім!

[12.03.2018] Реліз оновлено - додано заключну третю серію


Авторський реліз (завантажувати можна без реєстрації)
 Трекер:    Зареєстрований   

Завантажити / скачати торрент



відео для новачків



 Зареєстрований:   2018-03-12 21:20
 Розмір:   3.25 GB 
 Оцінка:   9.1/10 (Голосів: 14)
   
Anonymous 







2018-02-27 17:25  
Реліз оновлено - додано другу серію
Anonymous 







2018-03-12 21:22  
[12.03.2018] Реліз оновлено - додано заключну третю серію
Ваш часовий пояс: GMT + 2 Години

Нова тема   Відповісти