Вотерґейт: Падіння Білого дому / Mark Felt: The Man Who Brought Down the White House (2017) 1080p Ukr/Eng | Sub Eng

Нові коментарі

Нова тема   Відповісти
Автор Повідомлення
staf777 
Відео Гуртом - підтримка та поширення
Відео Гуртом - підтримка та поширення


З нами з: 16.11.16
Востаннє: 15.11.19
Повідомлень: 3023

2018-02-14 14:32  
Вотерґейт: Падіння Білого дому / Mark Felt: The Man Who Brought Down the White House (2017) 1080p Ukr/Eng | Sub Eng




«Все таємне стає явним»



Жанр: біографія, драма, історія, триллер
Країна: США



Кінокомпанія: Endurance Media, MadRiver Pictures, Playtone
Режисер: Пітер Ландесман
Актори: Ліам Нісон, Дайан Лейн, Мартон Чокаш, Тоні Голдуін, Айк Барінхолц, Джош Лукас, Венді МакЛендон-Кові, Кейт Волш, Брайан Д’Арсі Джеймс, Майка Монро

Сюжет:
Фільм про головну і довгий час нерозгадану складову грандіозного скандалу ХХ століття, котрий призвів до відставки американського президента Річарда Ніксона. Викривальну інформацію на главу держави передавав пресі дехто "Глибока Горлянка", за котрим приховувався замначальника ФБР Марк Фелт.


Тривалість: 01:42:57
Якість: 1080p

Відео:
кодек:
розмір кадру: 1920x960
бітрейт: 12.5 Mб/с

Аудіо # 1:
мова: українська
переклад: професійний дубльований
кодек: 2.0
бітрейт: 192 кб/с

Аудіо # 2:
мова: англійська
переклад: оригінал
кодек: 5.1
бітрейт: 1509 кб/с

Субтитри:
мова: англійська
тип: програмні (м'які)
формат: *.srt
Скріншоти




Info
Код:

General
Unique ID                                : 214458130875603811022786029380327849399 (0xA15722341293567692696AF6E7EE3DB7)
Complete name                            : K:\Майбутні релізи\Mark Felt The Man Who Brought Down the White House (2017) 1080p [Ukr][Eng][Sub Eng][Hurtom].
Format                                   :
Format version                           : Version 4 / Version 2
File size                                : 10.2 GiB
Duration                                 : 1 h 42 min
Overall bit rate                         : 14.2 Mb/s
Movie name                               : Mark Felt: The Man Who Brought Down the White House (2017) 1080p [Ukr][Eng][Sub Eng][Hurtom]
Encoded date                             : UTC 2018-02-14 14:54:17
Writing application                      : v9.8.0 ('Kuglblids') 64bit
Writing library                          : libebml v1.3.4 + v1.4.5

Video
ID                                       : 1
Format                                   : AVC
Format/Info                              : Advanced Video Codec
Format profile                           : [email protected]
Format settings, CABAC                   : Yes
Format settings, ReFrames                : 4 frames
Codec ID                                 : V_MPEG4/ISO/AVC
Duration                                 : 1 h 42 min
Bit rate                                 : 12.5 Mb/s
Width                                    : 1 920 pixels
Height                                   : 960 pixels
Display aspect ratio                     : 2.000
Frame rate mode                          : Constant
Frame rate                               : 23.976 (24000/1001) FPS
Color space                              : YUV
Chroma subsampling                       : 4:2:0
Bit depth                                : 8 bits
Scan type                                : Progressive
Bits/(Pixel*Frame)                       : 0.282
Stream size                              : 8.95 GiB (88%)
Writing library                          : core 142 r2431+42 c69a006 tMod [[email protected]:2:0 X86]
Encoding settings                        : cabac=1 / ref=4 / deblock=1:-3:-3 / analyse=0x3:0x133 / me=umh / subme=10 / psy=1 / fade_compensate=0.00 / psy_rd=1.00:0.00 / mixed_ref=1 / me_range=48 / chroma_me=1 / trellis=2 / 8x8dct=1 / cqm=0 / deadzone=21,11 / fast_pskip=0 / chroma_qp_offset=-2 / threads=12 / lookahead_threads=1 / sliced_threads=0 / nr=0 / decimate=0 / interlaced=0 / bluray_compat=0 / constrained_intra=0 / fgo=0 / bframes=6 / b_pyramid=2 / b_adapt=2 / b_bias=0 / direct=3 / weightb=0 / open_gop=0 / weightp=2 / keyint=230 / keyint_min=22 / scenecut=40 / intra_refresh=0 / rc_lookahead=60 / rc=2pass / mbtree=1 / bitrate=12453 / ratetol=1.0 / qcomp=0.60 / qpmin=0:0:0 / qpmax=69:69:69 / qpstep=4 / cplxblur=20.0 / qblur=0.5 / vbv_maxrate=50000 / vbv_bufsize=50000 / nal_hrd=none / filler=0 / ip_ratio=1.40 / aq=1:1.00 / aq-sensitivity=10.00 / aq-factor=1.00:1.00:1.00 / aq2=0 / aq3=0
Language                                 : English
Default                                  : Yes
Forced                                   : No

Audio #1
ID                                       : 2
Format                                   : AC-3
Format/Info                              : Audio Coding 3
Mode extension                           : CM (complete main)
Format settings, Endianness              : Big
Codec ID                                 : A_AC3
Duration                                 : 1 h 42 min
Bit rate mode                            : Constant
Bit rate                                 : 192 kb/s
Channel(s)                               : 2 channels
Channel positions                        : Front: L R
Sampling rate                            : 48.0 kHz
Frame rate                               : 31.250 FPS (1536 spf)
Bit depth                                : 16 bits
Compression mode                         : Lossy
Stream size                              : 141 MiB (1%)
Language                                 : Ukrainian
Default                                  : Yes
Forced                                   : Yes

Audio #2
ID                                       : 3
Format                                   :
Format/Info                              : Digital Theater Systems
Mode                                     : 16
Format settings, Endianness              : Big
Codec ID                                 : A_DTS
Duration                                 : 1 h 42 min
Bit rate mode                            : Constant
Bit rate                                 : 1 509 kb/s
Channel(s)                               : 6 channels
Channel positions                        : Front: L C R, Side: L R, LFE
Sampling rate                            : 48.0 kHz
Frame rate                               : 93.750 FPS (512 spf)
Bit depth                                : 16 bits
Compression mode                         : Lossy
Stream size                              : 1.09 GiB (11%)
Language                                 : English
Default                                  : No
Forced                                   : No

Text
ID                                       : 4
Format                                   : UTF-8
Codec ID                                 : S_TEXT/UTF8
Codec ID/Info                            : UTF-8 Plain Text
Duration                                 : 1 h 37 min
Bit rate                                 : 60 b/s
Count of elements                        : 1180
Stream size                              : 43.2 KiB (0%)
Language                                 : English
Default                                  : No
Forced                                   : No

Menu
00:00:00.000                             : en:Chapter 1
00:08:38.226                             : en:Chapter 2
00:15:54.078                             : en:Chapter 3
00:21:22.823                             : en:Chapter 4
00:33:01.396                             : en:Chapter 5
00:36:17.508                             : en:Chapter 6
00:47:14.039                             : en:Chapter 7
00:56:39.270                             : en:Chapter 8
01:03:02.945                             : en:Chapter 9
01:10:16.420                             : en:Chapter 10
01:13:50.551                             : en:Chapter 11
01:17:03.827                             : en:Chapter 12
01:21:09.239                             : en:Chapter 13
01:26:26.306                             : en:Chapter 14
01:29:31.032                             : en:Chapter 15
01:35:10.579                             : en:Chapter 16
Подяка пану AngryBirdsUA за доріжку, синхронізація Covenant.

Підтримати купівлю інших фільмів можна тут.


Джерело: &
Особиста оцінка: 0 - не дивився


 Трекер:    Зареєстрований   

Завантажити / скачати фільм українською



відео для новачків



 Зареєстрований:   2018-02-14 17:34
 Розмір:   10.18 GB 
 Оцінка фільму:   8.7/10 (Голосів: 14)
   
bot 
робот


З нами з: 30.09.07
Востаннє: 26.05.05
Повідомлень: 22470

2018-02-14 17:33  
Тему перенесено з Анонси релізів до форуму Фільми в HD


staf777

0mage0 
VIP


З нами з: 06.10.15
Востаннє: 15.11.19
Повідомлень: 561

2018-02-19 13:33  
Черговий фільм, заснований на реальних подіях і черговий фільм, вартий уваги. Загалом непогано, от тільки тема причетності марка Фелта до стеження за членами Weather Underground, за яке його в результаті засудили, зачеплена дуже побічно.
І в кінці він нічого не відповів на питання, хоча очевидно,
він не підтверджував, що це він інформатор. Цікаво, до 2005 року, коли він підтвердив, це був секрет Полішинеля?

Ваш часовий пояс: GMT + 2 Години

Нова тема   Відповісти