Мова / Ukrainian language (2016) 1080p

Нові коментарі

Нова тема   Відповісти
Автор Повідомлення
Леля22 
Забанено
Забанено


З нами з: 22.07.15
Востаннє: 07.08.18
Повідомлень: 1032

2018-02-13 22:50  
Мова / Ukrainian language (2016) 1080p

Мова / Ukrainian language (2016) 1080p


Жанр: документальний
Країна: Україна

Телеканал / кіностудія: Виробництво Громадська організація «Південь» та Міжнародний фестиваль документального кіно про права людини Docudays UA
За фінансової підтримки Посольства Швеції в Україні
Режисер: Сергій Лисенко
У фільмі знімалися: Анастасія Розлуцька, координаторка проекту, керівник громадської організації «Український світ»; Дзвінка Матіяш, письменниця; Катерина Мельник, координаторка та викладачка; Тетяна Шептицька, викладачка та інші

Опис:
Документальний фільм про волонтерів, які створюють можливості для вивчення української мови. Коли влада не діє, коли такі потрібні закони для розвитку української не ухвалюються, коли запит на вивчення мови зростає, приходять філологи, яким не байдуже. Спершу вони створюють Безкоштовні курси української мови у 25 містах України, а потім вирішують створити онлайн навчання, щоб дійти до всіх охочих, які бажають вивчити мову.

Офіційний сайт проекту: http://movaua.org.ua/

Тривалість: 00:16:15
Якість: 1080p
Відео:
кодек:
розмір кадру: 1920 х 1080 (16:9)
бітрейт: 4 500 кб/с

Аудіо:
мова: українська
переклад: оригінал
кодек: 2.0
бітрейт: 256 кб/с

Субтитри:
мова: англійська
тип: вбудовані (жорсткі)
Скріншоти








Info
General
Format : MPEG-4
Format profile : Base Media / Version 2
Codec ID : mp42 (mp42/mp41/isom/avc1)
File size : 551 MiB
Duration : 16 min 15 s
Overall bit rate mode : Variable
Overall bit rate : 4 735 kb/s
Encoded date : UTC 2016-02-21 14:37:11
Tagged date : UTC 2016-02-21 14:37:11

Video
ID : 1
Format : AVC
Format/Info : Advanced Video Codec
Format profile : [email protected]
Format settings : CABAC / 4 Ref Frames
Format settings, CABAC : Yes
Format settings, RefFrames : 4 frames
Codec ID : avc1
Codec ID/Info : Advanced Video Coding
Duration : 16 min 15 s
Bit rate : 4 500 kb/s
Width : 1 920 pixels
Height : 1 080 pixels
Display aspect ratio : 16:9
Frame rate mode : Constant
Frame rate : 25.000 FPS
Color space : YUV
Chroma subsampling : 4:2:0
Bit depth : 8 bits
Scan type : Progressive
Bits/(Pixel*Frame) : 0.087
Stream size : 520 MiB (95%)
Writing library : core 148 r11 a01e339
Encoding settings : cabac=1 / ref=4 / deblock=1:0:0 / analyse=0x3:0x113 / me=umh / subme=8 / psy=1 / psy_rd=1.00:0.00 / mixed_ref=1 / me_range=16 / chroma_me=1 / trellis=1 / 8x8dct=1 / cqm=0 / deadzone=21,11 / fast_pskip=1 / chroma_qp_offset=-2 / threads=34 / lookahead_threads=5 / sliced_threads=0 / nr=0 / decimate=1 / interlaced=0 / bluray_compat=0 / stitchable=1 / constrained_intra=0 / bframes=3 / b_pyramid=2 / b_adapt=2 / b_bias=0 / direct=3 / weightb=1 / open_gop=0 / weightp=2 / keyint=infinite / keyint_min=25 / scenecut=40 / intra_refresh=0 / rc_lookahead=50 / rc=2pass / mbtree=1 / bitrate=4500 / ratetol=1.0 / qcomp=0.60 / qpmin=5 / qpmax=69 / qpstep=4 / cplxblur=20.0 / qblur=0.5 / vbv_maxrate=4950 / vbv_bufsize=13500 / nal_hrd=none / filler=0 / ip_ratio=1.40 / aq=1:1.00
Encoded date : UTC 2016-02-21 14:37:11
Tagged date : UTC 2016-02-21 14:37:11
Color range : Limited
Color primaries : BT.709
Transfer characteristics : BT.709
Matrix coefficients : BT.709

Audio
ID : 2
Format :
Format/Info : Advanced Audio Codec
Format profile : LC
Codec ID : mp4a-40-2
Duration : 16 min 15 s
Bit rate mode : Variable
Bit rate : 256 kb/s
Channel(s) : 2 channels
Channel positions : Front: L R
Sampling rate : 48.0 kHz
Frame rate : 46.875 FPS (1024 SPF)
Compression mode : Lossy
Stream size : 29.8 MiB (5%)
Encoded date : UTC 2016-02-21 14:37:11
Tagged date : UTC 2016-02-21 14:37:11
Джерело: інтернет


Золотий реліз (завантажене не впливає на рейтинг)
 Трекер:    Зареєстрований   

Завантажити / скачати фільм українською



відео для новачків



 Зареєстрований:   2018-02-13 22:50
 Розмір:   551 MB 
 Оцінка фільму:   9.4/10 (Голосів: 31)
   
Maters 
VIP


З нами з: 27.03.12
Востаннє: 19.09.19
Повідомлень: 1684

2019-01-05 12:20  
Клас. Добре, що є такі люди, які несуть рідну мову і книги тим, кому це потрібно. І головне - добре, що є такі, кому це потрібно і хто хоче знати рідну мову. Це заслуговує великої поваги. Молодці ))
imyavetra 
Новенький


З нами з: 11.08.18
Востаннє: 27.08.19
Повідомлень: 4

2019-02-18 23:27  
Дякую, дуже цікаво! Вивчаю російську вже довго, але хочется говорити українською :)
jaral 
Відео Гуртом - підтримка та поширення
Відео Гуртом - підтримка та поширення


З нами з: 18.10.07
Востаннє: 17.09.19
Повідомлень: 813

2019-02-20 03:22  
Леля22 написано:
у 25 містах України
У тих 24 містах України, немає державних навчальних закладів та відсутні українці?

Цитата:
коли такі потрібні закони для розвитку української не ухвалюються
Конституції замало? 1001 закон ніяк не зможе вирішити ситуацію, якщо за порушення мовних прав українців не почнуть карати всіх, від директора туалету по Головнокомандувача.
Ваш часовий пояс: GMT + 2 Години

Нова тема   Відповісти