Спарк. Герой всесвіту / Spark: A Space Tail (2016) 1080p Ukr/Eng | Sub Eng

Нові коментарі

Нова тема   Відповісти
Автор Повідомлення
staf777 
Відео Гуртом - підтримка та поширення
Відео Гуртом - підтримка та поширення


З нами з: 16.11.16
Востаннє: 02.03.21
Повідомлень: 5068

2018-02-13 16:25  
Спарк. Герой всесвіту / Spark: A Space Tail (2016) 1080p Ukr/Eng | Sub Eng

Спарк. Герой всесвіту / Spark: A Space Tail (2016) 1080p Ukr/Eng | Sub Eng


Жанр: комедія, пригоди, мультфільм
Країна: Канада, Південна Корея



Кінокомпанія: ToonBox Entertainment, Redrover Co. Ltd., Gulfstream Pictures
Режисер: Аарон Вудлі
Актори: Джессіка Біл, Патрік Стюарт, Сьюзен Сарандон, Хіларі Суонк, Афіна Карканіс

Сюжет:
На одній з планет 13 років тому трапилася непоправна катастрофа. Справедливого короля, який там правив, скинув його брат, генерал Зонг. Він не пощадив планету, розколовши її на уламки. На одному з них тепер справжнісіньке сміттєзвалище. Тут, серед куп сміття, живе юний Спарк зі своїми друзями. Випадково герої знаходять спосіб переміститися до інших, хто вижив після тієї руйнівної атаки на планету. Спілкуючись з жителями інших уламків, Спарк дізнається, що він насправді є сином короля і лише йому під силу скинути Зонга, відновивши справедливість у всесвіті.


Тривалість: 01:31:29
Якість: 1080p
Відео:
кодек:
розмір кадру: 1920x804
бітрейт: 10,2 Mб/с

Аудіо # 1:
мова: українська
переклад: професійний дубльований
кодек: 2.0 (стерео)
бітрейт: 192 кб/с

Аудіо # 2:
мова: англійська
переклад: оригінал
кодек: 5.1
бітрейт: 640 кб/с

Субтитри:
мова: англійська
тип: програмні (м'які)
формат: *.srt
Info
General
Unique ID : 212037133378867407049808458495503876856 (0x9F84DDCFA4BF928EA76D55CBEDABC2F8)
Complete name : I:\Spark A Space Tail (2016) 1080p [Ukr][Eng] [Sub Eng][Hurtom].
Format :
Format version : Version 4 / Version 2
File size : 7.05 GiB
Duration : 1 h 31 min
Overall bit rate : 11.0 Mb/s
Movie name : Spark: A Space Tail (2016) 1080p [Ukr][Eng] [Sub Eng][Hurtom]
Encoded date : UTC 2018-02-13 13:48:48
Writing application : v9.8.0 ('Kuglblids') 64bit
Writing library : libebml v1.3.4 + v1.4.5

Video
ID : 1
Format : AVC
Format/Info : Advanced Video Codec
Format profile : [email protected]
Format settings, CABAC : Yes
Format settings, ReFrames : 5 frames
Codec ID : V_MPEG4/ISO/AVC
Duration : 1 h 31 min
Bit rate : 10.2 Mb/s
Width : 1 920 pixels
Height : 804 pixels
Display aspect ratio : 2.40:1
Frame rate mode : Constant
Frame rate : 23.976 (24000/1001) FPS
Color space : YUV
Chroma subsampling : 4:2:0
Bit depth : 8 bits
Scan type : Progressive
Bits/(Pixel*Frame) : 0.276
Stream size : 6.52 GiB (92%)
Writing library : core 148 r2705 3f5ed56
Encoding settings : cabac=1 / ref=5 / deblock=1:-3:-3 / analyse=0x3:0x133 / me=umh / subme=11 / psy=1 / psy_rd=1.05:0.05 / mixed_ref=1 / me_range=48 / chroma_me=1 / trellis=2 / 8x8dct=1 / cqm=0 / deadzone=21,11 / fast_pskip=0 / chroma_qp_offset=-3 / threads=12 / lookahead_threads=2 / sliced_threads=0 / nr=0 / decimate=0 / interlaced=0 / bluray_compat=0 / constrained_intra=0 / bframes=10 / b_pyramid=2 / b_adapt=2 / b_bias=0 / direct=3 / weightb=1 / open_gop=0 / weightp=2 / keyint=240 / keyint_min=23 / scenecut=40 / intra_refresh=0 / rc_lookahead=50 / rc=2pass / mbtree=0 / bitrate=10200 / ratetol=1.0 / qcomp=0.60 / qpmin=0 / qpmax=69 / qpstep=4 / cplxblur=20.0 / qblur=0.5 / vbv_maxrate=50000 / vbv_bufsize=62500 / nal_hrd=none / filler=0 / ip_ratio=1.40 / pb_ratio=1.30 / aq=3:0.80
Language : English
Default : Yes
Forced : No

Audio #1
ID : 2
Format : AC-3
Format/Info : Audio Coding 3
Mode extension : CM (complete main)
Format settings, Endianness : Big
Codec ID : A_AC3
Duration : 1 h 31 min
Bit rate mode : Constant
Bit rate : 192 kb/s
Channel(s) : 2 channels
Channel positions : Front: L R
Sampling rate : 48.0 kHz
Frame rate : 31.250 FPS (1536 spf)
Bit depth : 16 bits
Compression mode : Lossy
Stream size : 126 MiB (2%)
Language : Ukrainian
Default : Yes
Forced : Yes

Audio #2
ID : 3
Format : AC-3
Format/Info : Audio Coding 3
Mode extension : CM (complete main)
Format settings, Endianness : Big
Codec ID : A_AC3
Duration : 1 h 31 min
Bit rate mode : Constant
Bit rate : 640 kb/s
Channel(s) : 6 channels
Channel positions : Front: L C R, Side: L R, LFE
Sampling rate : 48.0 kHz
Frame rate : 31.250 FPS (1536 spf)
Bit depth : 16 bits
Compression mode : Lossy
Stream size : 419 MiB (6%)
Title : Original
Language : English
Default : No
Forced : No

Text
ID : 4
Format : UTF-8
Codec ID : S_TEXT/UTF8
Codec ID/Info : UTF-8 Plain Text
Duration : 1 h 23 min
Bit rate : 41 b/s
Count of elements : 659
Stream size : 25.6 KiB (0%)
Title : Full
Language : English
Default : No
Forced : No

Menu
00:00:00.000 : en:00:00:00.000
00:10:20.870 : en:00:10:20.870
00:20:26.976 : en:00:20:26.976
00:30:43.050 : en:00:30:43.050
00:41:17.850 : en:00:41:17.850
00:51:33.549 : en:00:51:33.549
01:01:36.526 : en:01:01:36.526
01:12:35.518 : en:01:12:35.518
01:23:05.314 : en:01:23:05.314
Скріншоти



Підтримати купівлю інших фільмів можна тут.


Подяка пану AngryBirdsUA за доріжку та пану Hanway за синхронізацію.
Джерело: &
Особиста оцінка: 0 - не дивився


 Трекер:    Зареєстрований   

Завантажити / скачати мультфільм українською



відео для новачків



 Зареєстрований:   2018-02-13 16:25
 Розмір:   7.05 GB 
 Оцінка мультфільму:   10/10 (Голосів: 7)
   
Інші релізи
maSiya 
Новенький


З нами з: 09.06.15
Востаннє: 09.01.21
Повідомлень: 16

2018-05-03 18:26  
Досить непоганий мульт,на раз вистачає
Ваш часовий пояс: GMT + 2 Години

Нова тема   Відповісти