Вбивство у «Східному експресі» / Murder on the Orient Express (2017) Remux 1080p Ukr/Eng | Sub Ukr/Eng

Нові коментарі

Нова тема   Відповісти
Автор Повідомлення
Devil_my_cry 
Частий відвідувач


З нами з: 26.06.10
Востаннє: 23.05.18
Повідомлень: 42

2018-02-13 02:35  
Вбивство у «Східному експресі» / Murder on the Orient Express (2017) Remux 1080p Ukr/Eng | Sub Ukr/Eng

Вбивство у «Східному експресі» / Murder on the Orient Express (2017) Remux 1080p Ukr/Eng | Sub Ukr/Eng


Жанр: детектив, драма, кримінальний
Країна: США, Мальта, Велика Британія, Франція, Канада, Нова Зеландія



Кінокомпанія: Twentieth Century Fox, Genre Films, Kinberg Genre
Режисер: Кеннет Брана
Актори: Кеннет Брана, Мішель Пфайффер, Джонні Депп, Дейзі Рідлі, Джуді Денч, Пенелопа Круз, Віллем Дефо, Джош Ґед, Люсі Бойнтон, Сергій Полунін, Олівія Колман

Сюжет:
«Вбивство у Східному експресі», засноване за однойменним романом Агати Крісті, повідає про пригоду великого детектива Еркюля Пуаро. Коли його поїзд був змушений зупинитися у зв'язку з тим, що випало занадто багато снігу, детективові довелося розслідувати вбивство одного з пасажирів.


Тривалість: 01:53:56
Якість: Remux 1080p
Відео:
кодек:
розмір кадру: 1920 х 1080
бітрейт: 23,7 Мб/с

Аудіо # 1:
мова: українська
переклад: професійний дубльований
кодек: 5.1
бітрейт: 448 кб/с

Аудіо # 2:
мова: англійська
переклад: оригінал
кодек: -HD MA 7.1
бітрейт: 4061 кб/с

Субтитри # 1-2: (форсовані/повні)
мова: українська
тип: програмні (м'які)
формат: *.srt

Субтитри # 3:
мова: англійська
тип: програмні (м'які)
формат: *.srt
Info
Video
Video
ID : 1
Format : AVC
Format/Info : Advanced Video Codec
Format profile : [email protected]
Format settings : CABAC / 4 Ref Frames
Format settings, CABAC : Yes
Format settings, ReFrames : 4 frames
Codec ID : V_MPEG4/ISO/AVC
Duration : 1 h 53 min
Bit rate mode : Variable
Bit rate : 23.7 Mb/s
Maximum bit rate : 29.5 Mb/s
Width : 1 920 pixels
Height : 1 080 pixels
Display aspect ratio : 16:9
Frame rate mode : Constant
Frame rate : 23.976 (23976/1000) FPS
Original frame rate : 23.976 (24000/1001) FPS
Color space : YUV
Chroma subsampling : 4:2:0
Bit depth : 8 bits
Scan type : Progressive
Bits/(Pixel*Frame) : 0.477
Stream size : 18.9 GiB (84%)
Title : MPEG-4 AVC Video / 23944 kbps / 1080p / 23.976 fps / 16:9 / High Profile 4.1
Language : English
Default : No
Forced : No

Audio #1
ID : 2
Format : AC-3
Format/Info : Audio Coding 3
Codec ID : A_AC3
Duration : 1 h 53 min
Bit rate mode : Constant
Bit rate : 448 kb/s
Channel(s) : 6 channels
Channel positions : Front: L C R, Side: L R, LFE
Sampling rate : 48.0 kHz
Frame rate : 31.250 FPS (1536 SPF)
Bit depth : 16 bits
Compression mode : Lossy
Stream size : 365 MiB (2%)
Title : , 5.1 448 Kbps, Українська
Language : Ukrainian
Service kind : Complete Main
Default : Yes
Forced : No

Audio #2
ID : 3
Format :
Format/Info : Digital Theater Systems
Format profile : MA / ES Matrix / Core
Codec ID : A_DTS
Duration : 1 h 53 min
Bit rate mode : Variable / Constant / Constant
Bit rate : 4 061 kb/s / 1 509 kb/s / 1 509 kb/s
Channel(s) : 8 channels / 7 channels / 6 channels
Channel positions : Front: L C R, Side: L R, Back: L R, LFE / Front: L C R, Side: L R, Back: C, LFE / Front: L C R, Side: L R, LFE
Sampling rate : 48.0 kHz
Frame rate : 93.750 FPS (512 SPF)
Bit depth : 24 bits
Compression mode : Lossless / Lossy / Lossy
Stream size : 3.23 GiB (14%)
Language : English
Default : No
Forced : No

Text #1
ID : 4
Format : UTF-8
Codec ID : S_TEXT/UTF8
Codec ID/Info : UTF-8 Plain Text
Duration : 1 h 50 min
Bit rate : 1 b/s
Count of elements : 27
Stream size : 1.04 KiB (0%)
Title : Forced
Language : Ukrainian
Default : Yes
Forced : Yes

Text #2
ID : 5
Format : UTF-8
Codec ID : S_TEXT/UTF8
Codec ID/Info : UTF-8 Plain Text
Duration : 1 h 53 min
Bit rate : 110 b/s
Count of elements : 1574
Stream size : 91.7 KiB (0%)
Title : Full
Language : Ukrainian
Default : No
Forced : No

Text #3
ID : 6
Format : UTF-8
Codec ID : S_TEXT/UTF8
Codec ID/Info : UTF-8 Plain Text
Duration : 1 h 50 min
Bit rate : 1 b/s
Count of elements : 27
Stream size : 1.04 KiB (0%)
Language : English
Default : No
Forced : No
Скріншоти







Музика
Музику до фільму «Вбивство у «Східному експресі» написав і виконав Патрік Дойл (окрім пісні «Never Forget», яку виконала Мішель Пфайффер), саундтрек був випущений 10 листопада 2017 року лейблом «Sony Classical»
Список треків

1.«The Wailing Wall»
2.«Jaffa To Stamboul»
3.«Arrival»
4.«The Orient Express»
5.«Departure»
6.«Judgement»
7.«Touch Nothing Else»
8.«MacQueen»
9.«Twelve Stab Wounds»
10.«The Armstrong Case»
11.«Mrs. Hubbard»
12.«This Is True»
13.«Keep Everyone Inside»
14.«Confession»
15.«Geography»
16.«One Sharp Knife»
17.«Ma Katherine»
18.«True Identity»
19.«Dr. Arbuthnot»
20.«It Is Time»
21.«Justice»
22.«Poirot»
23.«Never Forget»
24.«Orient Express Suite»
Касові збори
Під час показу в Україні, що розпочався 9 листопада 2017 року, протягом першого тижня на фільм було продано 229 107 квитків, фільм був показаний на 170 екранах і зібрав 18 961 662 ₴ (715 170 $), що на той час дозволило йому зайняти 1 місце серед усіх прем'єр.
Під час показу у США, що розпочався 10 листопада 2017 року, протягом першого тижня фільм був показаний у 3 341 кінотеатрі і зібрав 28 200 000 $, що на той час дозволило йому зайняти 3 місце серед усіх прем'єр. Станом на 19 листопада 2017 року показ фільму триває 10 днів (1,4 тижня), зібравши у прокаті в США 51 728 362 долари США, а у решті світу 96 534 097 $ (за іншими даними 96 500 000 $), тобто загалом 148 262 459 $ (за іншими даними 148 228 362 $) при бюджеті 55 млн доларів США.
Джерело: &
Особиста оцінка: 8 - мені сподобалося


Золотий реліз (завантажене не впливає на рейтинг)
 Трекер:    Зареєстрований   

Завантажити / скачати фільм українською



відео для новачків



 Зареєстрований:   2018-03-05 01:19
 Розмір:   22.46 GB 
 Оцінка фільму:   8.3/10 (Голосів: 37)
   
ika1963 
Відео Гуртом - дизайнер
Відео Гуртом - дизайнер


З нами з: 13.05.10
Востаннє: 22.05.18
Повідомлень: 256

2018-02-13 03:42  
Краще старий фільм глянути чи книгу перечитати...
sDob 
Новенький


З нами з: 19.01.16
Востаннє: 22.05.18
Повідомлень: 18

2018-02-13 18:09  
ледь витримав першу половину, вимкнув. шкода витраченого часу.
комином2 
Свій


З нами з: 11.11.11
Востаннє: 19.05.18
Повідомлень: 71

2018-02-18 20:09  
пшонка-стайл, кінематографічне бикоко
igor911 
Відео Гуртом
Відео Гуртом


З нами з: 18.01.08
Востаннє: 23.05.18
Повідомлень: 10100

2018-02-25 23:25  
Реліз оновлено - замінено звук з Line на iTunes, додано українські субтитри.
igor911 
Відео Гуртом
Відео Гуртом


З нами з: 18.01.08
Востаннє: 23.05.18
Повідомлень: 10100

2018-03-05 02:16  
Реліз оновлено укр.звуком з блурея.
fsy777 
Частий відвідувач


З нами з: 16.01.12
Востаннє: 19.05.18
Повідомлень: 27

2018-03-28 10:28  
Я книги не читала і старого фільму не бачила, тому мені важко сказати, що там лишилось від Агати Крісті. Але фільм нудний, сприймається не реалістично, на силу додивилась. Достатньо було подивитись той уривок, де Еркюль розкриває суть злочину Wide grin
Моя оцінка 4/10

AlexDSan 
Новенький


З нами з: 02.01.13
Востаннє: 19.05.18
Повідомлень: 5

2018-04-14 23:31  
Дякую за реліз. Фільм 1\10. Якщо хочете подивитись якісний продукт по Агаті Крісті, то подивіться краще старий фільм. Гра акторів на дві голови вище, підібрані на свої ролі краще, знято як справжній детиктив, а не хаотичний рух психопатів різних мастей та рівнів психованості. Після старого фільму - цей ... (далі йде не цензурна лайка). Дякую за увагу.
Uberwinder 
VIP


З нами з: 18.11.16
Востаннє: 22.05.18
Повідомлень: 261

2018-04-24 20:14  
А як на мене, то досить непоганий фільм.
Ваш часовий пояс: GMT + 2 Години

Нова тема   Відповісти