Ґолдберги (Сезон 4) / The Goldbergs (Season 4) (2016) DVBRip-AVC

Нові коментарі

Нова тема   Відповісти
Автор Повідомлення
Anonymous 







2018-02-12 17:37  
Ґолдберги (Сезон 4) / The Goldbergs (Season 4) (2016) DVBRip-AVC

Перший сезон | Другий сезон | Третій сезон | П'ятий сезон
| Шостий сезон

Ґолдберги (Сезон 4) / The Goldbergs (Season 4) (2016) DVBRip-AVC


Жанр: комедія, сімейний
Країна: США



Кінокомпанія / телеканал: Adam F. Goldberg Productions, Happy Madison Productions, Sony Pictures Television
Режисер: Адам Ф. Ґолдберг
Актори/ролі озвучують: Венді Маклендон-Кові, Сіан Амброн, Трой Джентіле, Гейлі Орранція, Джордж Сігал, Джефф Гарлін

Сюжет:
Події серіалу відбуваються в «1980-якомусь році» в містечку Дженкінтаун. У центрі сюжету сім'я Ґолдбергів. Головний герой серіалу хлопчик на ім'я Адам, який полюбляє роботів, фільми та майже завжди ходить зі своєю відеокамерою і фіксує різні події свого життя та сім'ї.
Серіал частково засновано на дитинстві та юності продюсера та сценариста Адама Ф. Ґолдберга, який теж знімав в дитинстві усе камерою і реальні зйомки потрапили у кожну серію серіалу.


Тривалість: 1 серія: 20 хв (цілком серій: 24 з 24)
Перелік серій

1. Breakfast Club
2. I Heart Video Dating
3. George! George Glass!
4. Crazy Calls
5. Stefan King
6. Recipe for Death II: Kiss the Cook
7. Ho-ly K.I.T.T.
8. The Greatest Musical Ever Written
9. Globetrotters
10. Han Ukkah Solo
11. O Captain! My Captain!
12. Snow Day
13. Agassi
14. The Spencer's Gift
15. So Swayze It's Crazy
16. The Kara-te Kid
17. Deadheads
18. Baré
19. A Night to Remember
20. The Dynamic Duo
21. Fonzie Scheme
22. The Day After the Day After
23. Jedi Master Adam Skywalker
24. Graduation Day
Якість: DVBRip-AVC
Відео:
кодек:
розмір кадру: 1024x570
бітрейт: 1868 кб/с

Аудіо:
мова: українська
переклад: багатоголосий закадровий
кодек: 2.0
бітрейт: 192 кб/с

Джерело озвучення:
Скріншоти






МІ
Complete name : E:\The Goldbergs (Season 4)\s04e01.
Format :
Format version : Version 4 / Version 2
File size : 304 MiB
Duration : 20 min 39 s
Overall bit rate : 2 061 kb/s
Encoded date : UTC 2018-02-11 21:10:34
Writing application : v8.8.0 ('Wind at my back') 64bit
Writing library : libebml v1.3.3 + v1.4.4

Video
ID : 1
Format : AVC
Format/Info : Advanced Video Codec
Format profile : [email protected]
Format settings : CABAC / 5 Ref Frames
Format settings, CABAC : Yes
Format settings, ReFrames : 5 frames
Codec ID : V_MPEG4/ISO/AVC
Duration : 20 min 39 s
Bit rate : 1 868 kb/s
Width : 1 024 pixels
Height : 570 pixels
Display aspect ratio : 16:9
Frame rate mode : Constant
Frame rate : 25.000 FPS
Color space : YUV
Chroma subsampling : 4:2:0
Bit depth : 8 bits
Scan type : Progressive
Bits/(Pixel*Frame) : 0.128
Stream size : 276 MiB (91%)
Writing library : core 146 r2555 0c21480
Encoding settings : cabac=1 / ref=5 / deblock=1:-1:-1 / analyse=0x3:0x113 / me=umh / subme=8 / psy=1 / psy_rd=1.00:0.15 / mixed_ref=1 / me_range=16 / chroma_me=1 / trellis=1 / 8x8dct=1 / cqm=0 / deadzone=21,11 / fast_pskip=1 / chroma_qp_offset=-3 / threads=3 / lookahead_threads=1 / sliced_threads=0 / nr=0 / decimate=1 / interlaced=0 / bluray_compat=0 / constrained_intra=0 / bframes=3 / b_pyramid=2 / b_adapt=2 / b_bias=0 / direct=3 / weightb=1 / open_gop=0 / weightp=2 / keyint=250 / keyint_min=25 / scenecut=40 / intra_refresh=0 / rc_lookahead=50 / rc=crf / mbtree=1 / crf=19.0 / qcomp=0.60 / qpmin=0 / qpmax=69 / qpstep=4 / ip_ratio=1.40 / aq=1:1.00
Language : English
Default : Yes
Forced : No

Audio
ID : 2
Format : AC-3
Format/Info : Audio Coding 3
Codec ID : A_AC3
Duration : 20 min 38 s
Bit rate mode : Constant
Bit rate : 192 kb/s
Channel(s) : 2 channels
Channel positions : Front: L R
Sampling rate : 44.1 kHz
Frame rate : 28.711 FPS (1536 SPF)
Bit depth : 16 bits
Compression mode : Lossy
Delay relative to video : 80 ms
Stream size : 28.4 MiB (9%)
Title : Paramount Comedy Ukraine
Language : Ukrainian
Service kind : Complete Main
Default : Yes
Forced : No
Подяка: Пану Sando7 за надані записи.
Особиста оцінка: 10 - без зайвих вагань рекомендую всім!
Дата останнього оновлення: 15.03.18 додано 17-24 серії. Повний сезон.



Бронзовий реліз (на рейтинг впливає 75% завантаженого)
 Трекер:    Зареєстрований   

Завантажити / скачати серіал українською



відео для новачків



 Зареєстрований:   2018-03-15 22:36
 Розмір:   7.12 GB 
 Оцінка серіалу:   8.5/10 (Голосів: 12)
   
kotiko4321 
Частий відвідувач


З нами з: 18.11.16
Востаннє: 23.09.18
Повідомлень: 36

2018-08-06 14:50  
Крутий серіал, а коли буде п'ятий сезон і чи буде?
Ваш часовий пояс: GMT + 2 Години

Нова тема   Відповісти