Політ золотої мушки (2015) | Режисерська версія

Нові коментарі

Нова тема   Відповісти
Автор Повідомлення
Anonymous 







2018-02-12 17:15  
Політ золотої мушки (2015) | Режисерська версія

Політ золотої мушки (2015) | Режисерська версія


Жанр: комедія
Країна: Україна



Кінокомпанія: Трембіта кіно
Режисер: Іван Кравчишин
Актори: Богдан Юсипчук, Софія Кравчишин, Олег Цьона, Сергій Великий, Володимир Процюк, Тарас Бобеляк, Ігор Наконечний, Ярослав Федорчук, Наталія Олексів, Володимир Пантелюк, Анна Назаревич, Дмитро Сенітович

Сюжет:
Маленька дівчинка-поетеса, яку тато називає хлоп'ячим ім'ям Микола, розповідає три історії, що трапилися в її селі: про футбольний матч, про весілля і про дивний заповіт. Микола знає все, тому що їй розповів про це дід - що брехати негарно, що хлопця, щоб він був завжди вірний, потрібно перевести через воду, що кіно в небі набагато цікавіше, ніж в кінотеатрі, і що людське життя подібне польоту золотої мушки над вогнем - таке ж яскраве і таке ж коротке.
Фільм-притча. Про життя в окремій цивілізації, ймення якій - Галичина!
Цікаві факти
- знятий за мотивами збірки оповідань "Бурачковицькі хроніки" Богдана Волошина;
- робоча назва - "Хроніки";
- фільм був показаний 17 липня 2015 року в національному конкурсі на Одеському міжнародному кінофестивалі;
- в український широкий прокат стрічка вийшла 25 лютого 2016 року;
- дистриб'ютор - Ukrainian Film Distribution;
- бюджет стрічки склав 16 мільйонів гривень: половина суми була надана державою, решта — цілою низкою інвесторів, зокрема студіями Orka та Synhro з Польщі та Австрії відповідно;
- зйомки розпочалися на початку квітня 2013 року і проходили на хуторі Великий Ходак в Івано-Франківській області, окремі кадри були відзняті в Добромилі Львівської області;
- сцену з весіллям на хуторі знімали кілька тижнів, так як місцеві жителі поралися з сіном, а звозити немісцевих для масових сцен режисер Іван Кравчишин відмовився;
- до зйомок фільму було залучено непрофесійних акторів із театрів Львова, Тернополя та Івано-Франківська, а масовку режисер Іван Кравчишин набрав із місцевих жителів тих сіл, де відбувалися зйомки;
- по завершенні зйомок "Політ золотої мушки" монтували приблизно п'ять місяців. Кольорокорекцію було зроблено в Польщі на студії Orka. Частину комп'ютерної графіки зробила студія Synhro з Австрії. Також до виробництва стрічки була залучена польська компанія Otwarte Оkenko;
- вперше показ по ТБ відбувся на каналі ICTV 02.01.2017 о 06:16 та в повторі о 03:56;
- за твердженням п.Форкуш в Тернополі під час кінофестивалю відбувся показ режисерської версії фільму тривалістю близько двох годин. З його слів, саме в режисерській версії є всі епізоди з офіційних трейлерів...
Офіційний трейлер:
Інші офіційні трейлери

трейлер № 2


трейлер № 5


[youtube][/youtube]

[youtube][/youtube]

[youtube][/youtube]


Вікова категорія: 16+

Тривалість: 02:18:43 [Повна режисерська версія]
Якість:
Відео:
кодек:
розмір кадру: 720 х 304
бітрейт: 2048 кб/с

Аудіо:
мова: українська
переклад: оригінал
кодек: 2.0
бітрейт: 192 кб/с
Info
Код:
General
Complete name               : Політ золотої мушки [Режисерська версія] (2015) [Hurtom].avi
Format                      : AVI
Format/Info                 : Audio Video Interleave
Format profile              : OpenDML
File size                   : 2.18 GiB
Duration                    : 2 h 18 min
Overall bit rate            : 2 251 kb/s
Movie name                  : Політ золотої мушки [Повна режисерська версія] (2015) [Hurtom]
Genre                       : Comedy
Writing application         : VirtualDubModUkr 1.5.10.2 (build 2542/release)
Writing library             : VirtualDubMod build 2542/release
Comment                     : https://toloka.to/t87475

Video
ID                          : 0
Format                      : MPEG-4 Visual
Format profile              : Advanced [email protected]
Format settings             : BVOP1
Format settings, BVOP       : 1
Format settings, QPel       : No
Format settings, GMC        : No warppoints
Format settings, Matrix     : Default (MPEG)
Codec ID                    :
Codec ID/Hint               :
Duration                    : 2 h 18 min
Bit rate                    : 2 048 kb/s
Width                       : 720 pixels
Height                      : 304 pixels
Display aspect ratio        : 2.35:1
Frame rate                  : 24.000 FPS
Color space                 : YUV
Chroma subsampling          : 4:2:0
Bit depth                   : 8 bits
Scan type                   : Progressive
Compression mode            : Lossy
Bits/(Pixel*Frame)          : 0.390
Stream size                 : 1.98 GiB (91%)
Writing library             : 67

Audio
ID                          : 1
Format                      : AC-3
Format/Info                 : Audio Coding 3
Codec ID                    : 2000
Duration                    : 2 h 18 min
Bit rate mode               : Constant
Bit rate                    : 192 kb/s
Channel(s)                  : 2 channels
Channel positions           : Front: L R
Sampling rate               : 48.0 kHz
Frame rate                  : 31.250 FPS (1536 SPF)
Bit depth                   : 16 bits
Compression mode            : Lossy
Stream size                 : 191 MiB (9%)
Alignment                   : Split accross interleaves
Interleave, duration        : 42  ms (1.00 video frame)
Interleave, preload duratio : 500  ms
Title                       : UKR (original)
Service kind                : Complete Main




Джерело:
Подяка п.Gstudio за реліз-першоджерело.


Золотий реліз (завантажене не впливає на рейтинг)
 Трекер:    Зареєстрований   

Завантажити / скачати український фільм



відео для новачків



 Зареєстрований:   2018-02-12 19:36
 Розмір:   2.18 GB 
 Оцінка фільму:   8.8/10 (Голосів: 25)
   
rakab 
Свій


З нами з: 02.08.09
Востаннє: 20.05.18
Повідомлень: 83

2018-02-12 22:28  
А чим "Повна режисерська версія" відрізняється від неповної? Цицьки показують? Happy
aldhissla737 
Новенький


З нами з: 13.01.15
Востаннє: 21.05.18
Повідомлень: 6

2018-02-13 05:52  
Тривалість: 02:18:43, а неповної 01:32:52! Також загляніть під спойлер Цікаві факти!
601сан 
Свій


З нами з: 22.05.12
Востаннє: 21.05.18
Повідомлень: 50

2018-02-14 00:24  
Якесь божевілля.Невже у нас в країні нема більш чим зайнятись як постійно корчить дурака
luybo72 
Новенький


З нами з: 20.02.18
Востаннє: 20.02.18
Повідомлень: 1

2018-02-20 02:05  
Хлопці я від вас в шоці..це і є україна...це ви!
Ваш часовий пояс: GMT + 2 Години

Нова тема   Відповісти