Гостя / The Host (2013) 1080p 2xUkr/Eng | Sub Eng

Нові коментарі

Нова тема   Відповісти
Автор Повідомлення
staf777 
Відео Гуртом - підтримка та поширення
Відео Гуртом - підтримка та поширення


З нами з: 16.11.16
Востаннє: 06.12.19
Повідомлень: 3038

2018-02-12 12:29  
Гостя / The Host (2013) 1080p 2xUkr/Eng | Sub Eng

Гостя / The Host (2013) 1080p 2xUkr/Eng | Sub Eng
Оригінальна обкладинка

Жанр: пригодницький, романтичний, фантастика
Країна: США



Кінокомпанія: Chockstone Pictures, Nick Wechsler Productions, Silver Reel
Режисер: Ендрю Ніккол
Актори: Сірша Ронан, Макс Айронс, Джейк Абель, Даян Крюґер, Вільям Герт, Чендлер Кентербері, Френсіс Фішер

Сюжет:
Інопланетна цивілізація окупувала тіла майже всіх людей на планеті. Вціліли одиниці. Бунтівники ховаються в пустелі і шукають шанс на порятунок... Одна з "Душ", яка іменує себе Мандрівниця, намагається захопити тіло Мелані. Проте стається несподіване: Мелані залишається живою, і їм доводиться співіснувати в одному тілі. Турбота Мелані про молодшого брата і щире кохання до Джеймі змушують Мандрівницю відчути ті ж емоції і стати на захист людей. Майбутнє всієї планети в руках однієї людини!


Тривалість: 02:05:38
Якість: 1080p [ріп від CHD]
Відео:
кодек:
розмір кадру: 1920 x 800
бітрейт: 9315 кб/с

Аудіо # 1:
мова: українська
переклад: професійний дубльований
кодек: 5.1
бітрейт: 384 кб/с

Аудіо # 2:
мова: українська
переклад: багатоголосий закадровий
кодек: 2.0 (стерео)
бітрейт: 192 кб/с

Аудіо # 3:
мова: англійська
переклад: оригінал
кодек: 5.1
бітрейт: 1509 кб/с

Аудіо # 4:
мова: англійська
переклад: Коментарі
кодек: 2.0
бітрейт: 128 кб/с

Субтитри # 1-3: (повні, SHD, SDH кольорові)
мова: англійська
тип: програмні (м'які)
формат: *.srt
Info
General
Unique ID : 277528303119282432630658337780712138713 (0xD0CA01C6C522624154379203C9A8E7D9)
Complete name : S:\» HD українською » Фільми в HD\Фантастика\The Host (2013) 1080p [2xUkr][Eng] [Sub Eng][Hurtom].
Format :
Format version : Version 4
File size : 10.1 GiB
Duration : 2 h 5 min
Overall bit rate : 11.5 Mb/s
Movie name : The Host (2013) 1080p [2xUkr][Eng] [Sub Eng][Hurtom]
Encoded date : UTC 2019-02-16 09:06:26
Writing application : v30.1.0 ('Forever And More') 64-bit
Writing library : libebml v1.3.6 + v1.4.9
Cover : Yes
Attachments : cover.jpg

Video
ID : 1
Format : AVC
Format/Info : Advanced Video Codec
Format profile : [email protected]
Format settings : CABAC / 5 Ref Frames
Format settings, CABAC : Yes
Format settings, ReFrames : 5 frames
Codec ID : V_MPEG4/ISO/AVC
Duration : 2 h 5 min
Bit rate : 9 315 kb/s
Width : 1 920 pixels
Height : 800 pixels
Display aspect ratio : 2.40:1
Frame rate mode : Constant
Frame rate : 23.976 FPS
Color space : YUV
Chroma subsampling : 4:2:0
Bit depth : 8 bits
Scan type : Progressive
Bits/(Pixel*Frame) : 0.253
Stream size : 8.15 GiB (81%)
Title : The.Host.2013.BluRay.1080p..-CHD
Writing library : core 130 r2273 b3065e6
Encoding settings : cabac=1 / ref=5 / deblock=1:-3:-3 / analyse=0x3:0x113 / me=umh / subme=10 / psy=1 / psy_rd=1.05:0.10 / mixed_ref=1 / me_range=48 / chroma_me=1 / trellis=2 / 8x8dct=1 / cqm=0 / deadzone=21,11 / fast_pskip=0 / chroma_qp_offset=-2 / threads=12 / lookahead_threads=1 / sliced_threads=0 / nr=0 / decimate=1 / interlaced=0 / bluray_compat=0 / constrained_intra=0 / bframes=6 / b_pyramid=2 / b_adapt=2 / b_bias=0 / direct=3 / weightb=1 / open_gop=0 / weightp=2 / keyint=250 / keyint_min=23 / scenecut=40 / intra_refresh=0 / rc_lookahead=40 / rc=2pass / mbtree=0 / bitrate=9315 / ratetol=2.0 / qcomp=0.70 / qpmin=0 / qpmax=69 / qpstep=4 / cplxblur=20.0 / qblur=0.5 / vbv_maxrate=40000 / vbv_bufsize=30000 / nal_hrd=none / ip_ratio=1.40 / pb_ratio=1.30 / aq=2:1.00
Language : English
Default : No
Forced : No

Audio #1
ID : 2
Format : AC-3
Format/Info : Audio Coding 3
Commercial name : Dolby Digital
Codec ID : A_AC3
Duration : 2 h 5 min
Bit rate mode : Constant
Bit rate : 384 kb/s
Channel(s) : 6 channels
Channel layout : L R C LFE Ls Rs
Sampling rate : 48.0 kHz
Frame rate : 31.250 FPS (1536 SPF)
Bit depth : 16 bits
Compression mode : Lossy
Stream size : 345 MiB (3%)
Title : [UKR-DUB]
Language : Ukrainian
Service kind : Complete Main
Default : Yes
Forced : Yes

Audio #2
ID : 3
Format : AC-3
Format/Info : Audio Coding 3
Commercial name : Dolby Digital
Codec ID : A_AC3
Duration : 2 h 5 min
Bit rate mode : Constant
Bit rate : 192 kb/s
Channel(s) : 2 channels
Channel layout : L R
Sampling rate : 48.0 kHz
Frame rate : 31.250 FPS (1536 SPF)
Bit depth : 16 bits
Compression mode : Lossy
Stream size : 173 MiB (2%)
Title : [UKR-MVO]
Language : Ukrainian
Service kind : Complete Main
Default : No
Forced : No

Audio #3
ID : 4
Format :
Format/Info : Digital Theater Systems
Codec ID : A_DTS
Duration : 2 h 5 min
Bit rate mode : Constant
Bit rate : 1 509 kb/s
Channel(s) : 6 channels
Channel layout : C L R Ls Rs LFE
Sampling rate : 48.0 kHz
Frame rate : 93.750 FPS (512 SPF)
Bit depth : 24 bits
Compression mode : Lossy
Stream size : 1.32 GiB (13%)
Title : .1509.Kbps English
Language : English
Default : No
Forced : No

Audio #4
ID : 5
Format : AC-3
Format/Info : Audio Coding 3
Commercial name : Dolby Digital
Codec ID : A_AC3
Duration : 2 h 5 min
Bit rate mode : Constant
Bit rate : 128 kb/s
Channel(s) : 2 channels
Channel layout : L R
Sampling rate : 48.0 kHz
Frame rate : 31.250 FPS (1536 SPF)
Bit depth : 16 bits
Compression mode : Lossy
Stream size : 115 MiB (1%)
Title : .128.Kbps (2ch) English (Commentary)
Language : English
Service kind : Complete Main
Default : No
Forced : No

Text #1
ID : 6
Format : UTF-8
Codec ID : S_TEXT/UTF8
Codec ID/Info : UTF-8 Plain Text
Duration : 1 h 54 min
Bit rate : 40 b/s
Count of elements : 1250
Stream size : 33.8 KiB (0%)
Title : English (Full)
Language : English
Default : No
Forced : No

Text #2
ID : 7
Format : UTF-8
Codec ID : S_TEXT/UTF8
Codec ID/Info : UTF-8 Plain Text
Duration : 1 h 54 min
Bit rate : 42 b/s
Count of elements : 1312
Stream size : 35.8 KiB (0%)
Title : English (SDH)
Language : English
Default : No
Forced : No

Text #3
ID : 8
Format : UTF-8
Codec ID : S_TEXT/UTF8
Codec ID/Info : UTF-8 Plain Text
Duration : 1 h 54 min
Bit rate : 49 b/s
Count of elements : 1312
Stream size : 41.4 KiB (0%)
Title : English (SDH-Colored)
Language : English
Default : No
Forced : No

Menu
00:00:00.000 : en:00:00:00.000
00:06:03.530 : en:00:06:03.530
00:12:12.398 : en:00:12:12.398
00:20:29.770 : en:00:20:29.770
00:25:19.727 : en:00:25:19.727
00:31:01.234 : en:00:31:01.234
00:35:37.135 : en:00:35:37.135
00:40:02.317 : en:00:40:02.317
00:45:39.153 : en:00:45:39.153
00:51:08.482 : en:00:51:08.482
00:55:26.198 : en:00:55:26.198
01:03:49.951 : en:01:03:49.951
01:13:51.761 : en:01:13:51.761
01:18:54.355 : en:01:18:54.355
01:27:54.144 : en:01:27:54.144
01:32:36.468 : en:01:32:36.468
01:37:53.284 : en:01:37:53.284
01:46:51.697 : en:01:46:51.697
01:52:23.528 : en:01:52:23.528
01:57:30.669 : en:01:57:30.669
Скріншоти





Подяка пану Sando7 за запис доріжки №2 та пану AngryBirdsUA за синхронізацію
Джерело: &
Особиста оцінка: 0 - не дивився


 Трекер:    Зареєстрований   

Завантажити / скачати фільм українською



відео для новачків



 Зареєстрований:   2019-02-16 13:08
 Розмір:   10.1 GB 
 Оцінка фільму:   8.1/10 (Голосів: 12)
   
Інші релізи
   Гостя / The Host (2013) AVC 2хUkr/Eng | Sub Eng AngryBirdsUA  4 / 0   2.3 GB   2019-01-08 15:42 
   Гостя / The Host (2013) 720р Ukr/Eng kino.  1 / 0   4.31 GB   2014-12-11 16:24 
   Гостя / The Host (2013) Ukr/Eng Gelios  5 / 0   2.18 GB   2014-12-10 14:20 
zhekaice 
Новенький


З нами з: 05.03.08
Востаннє: 01.11.19
Повідомлень: 21

2018-02-19 19:46  
З якого переляку слово host (хазяїн) стало Гість. Коли гість - це guest.

Прокатчики - такі прокатчики... все з ніг на голову.

waldi-hurtom 
VIP


З нами з: 07.10.12
Востаннє: 06.12.19
Повідомлень: 1052

2018-02-21 00:17  
Повна лажа. 1 з 10.
staf777 
Відео Гуртом - підтримка та поширення
Відео Гуртом - підтримка та поширення


З нами з: 16.11.16
Востаннє: 06.12.19
Повідомлень: 3038

2019-02-16 13:09  
Додав доріжку від 
Ваш часовий пояс: GMT + 2 Години

Нова тема   Відповісти