Малавіта (Malavita) / The Family (2013) 1080p 2xUkr/Eng | Sub Eng

Нові коментарі

Нова тема   Відповісти
Автор Повідомлення
staf777 
Відео Гуртом - підтримка та поширення
Відео Гуртом - підтримка та поширення


З нами з: 16.11.16
Востаннє: 18.04.19
Повідомлень: 2258

2018-02-12 11:52  
Малавіта / The Family (2013) 1080p 2xUkr/Eng | Sub Eng

Малавіта (Malavita) / The Family (2013) 1080p 2xUkr/Eng | Sub Eng
Оригінальна обкладинка

Жанр: комедія, кримінальний, трилер
Країна: США, Франція



Кінокомпанія: EuropaCorp, Relativity Media, TF1 Films Production
Режисер: Люк Бессон / Luc Besson
Актори: Роберт Де Ніро / Robert De Niro, Мішель Пфайфер / Michelle Pfeiffer, Томмі Лі Джонс / Tommy Lee Jones, Діана Аґрон / Dianna Agron, Джон Д’Лео / John D'Leo, Джон Фреда / Jon Freda, Джимі Палумбо / Jimmy Palumbo та інші

Сюжет:
У мале французьке місто приїжджає письменник Фред Блейк разом зі своєю родиною: дружиною, донькою і сином. Але насправді Фред Блейк — це Джованні Манцоні, мафіозі, що переховується у Франції за програмою захисту свідків. Сім'я дуже часто змінює своє місце перебування, оскільки їх знаходила італійська мафія. Коза Ностра знайшла їх і у Франції.


Тривалість: 01:51:33
Якість: 1080p [USA Transfer, ріп від CHD]
Відео:
кодек:
розмір кадру: 1920 x 804
бітрейт: 8655 кб/с

Аудіо # 1:
мова: українська
переклад: професійний дубльований
кодек: 2.0
бітрейт: 192 кб/с

Аудіо # 2:
мова: українська
переклад: багатоголосий закадровий
кодек: 2.0
бітрейт: 192 кб/с

Аудіо # 3:
мова: англійська
переклад: оригінал
кодек: 5.1
бітрейт: 1509 кб/с

Субтитри # 1-3: (повні, SHD, SDH Colored)
мова: англійська
тип: програмні (м'які)
формат: *.srt
Info

General
Unique ID : 266784230989063192588345759470331491878 (0xC8B4C61F4EBDB84BE65E0AEFDF85F626)
Complete name : S:\» HD українською » Фільми в HD\Комедія\The Family (2013) 1080p [2xUkr][Eng] [Sub Eng][Hurtom].
Format :
Format version : Version 4
File size : 8.21 GiB
Duration : 1 h 51 min
Overall bit rate : 10.5 Mb/s
Movie name : The Family (2013) 1080p [2xUkr][Eng] [Sub Eng][Hurtom]
Encoded date : UTC 2019-02-20 11:31:45
Writing application : v30.1.0 ('Forever And More') 64-bit
Writing library : libebml v1.3.6 + v1.4.9
Cover : Yes
Attachments : cover.jpg

Video
ID : 1
Format : AVC
Format/Info : Advanced Video Codec
Format profile : [email protected]
Format settings : CABAC / 5 Ref Frames
Format settings, CABAC : Yes
Format settings, ReFrames : 5 frames
Codec ID : V_MPEG4/ISO/AVC
Duration : 1 h 51 min
Bit rate : 8 655 kb/s
Width : 1 920 pixels
Height : 804 pixels
Display aspect ratio : 2.40:1
Frame rate mode : Constant
Frame rate : 23.976 FPS
Color space : YUV
Chroma subsampling : 4:2:0
Bit depth : 8 bits
Scan type : Progressive
Bits/(Pixel*Frame) : 0.234
Stream size : 6.73 GiB (82%)
Writing library : core 138 r2356 a1d3d17
Encoding settings : cabac=1 / ref=5 / deblock=1:-3:-3 / analyse=0x3:0x113 / me=umh / subme=10 / psy=1 / psy_rd=1.00:0.05 / mixed_ref=1 / me_range=32 / chroma_me=1 / trellis=2 / 8x8dct=1 / cqm=0 / deadzone=21,11 / fast_pskip=0 / chroma_qp_offset=-2 / threads=18 / lookahead_threads=1 / sliced_threads=0 / nr=0 / decimate=1 / interlaced=0 / bluray_compat=0 / constrained_intra=0 / bframes=5 / b_pyramid=2 / b_adapt=2 / b_bias=0 / direct=3 / weightb=1 / open_gop=0 / weightp=2 / keyint=250 / keyint_min=23 / scenecut=40 / intra_refresh=0 / rc=2pass / mbtree=0 / bitrate=8655 / ratetol=1.0 / qcomp=0.70 / qpmin=0 / qpmax=69 / qpstep=4 / cplxblur=20.0 / qblur=0.5 / ip_ratio=1.40 / pb_ratio=1.30 / aq=2:0.90
Language : English
Default : No
Forced : No

Audio #1
ID : 2
Format : AC-3
Format/Info : Audio Coding 3
Commercial name : Dolby Digital
Codec ID : A_AC3
Duration : 1 h 51 min
Bit rate mode : Constant
Bit rate : 192 kb/s
Channel(s) : 2 channels
Channel layout : L R
Sampling rate : 48.0 kHz
Frame rate : 31.250 FPS (1536 SPF)
Bit depth : 16 bits
Compression mode : Lossy
Stream size : 153 MiB (2%)
Language : Ukrainian
Service kind : Complete Main
Default : Yes
Forced : Yes

Audio #2
ID : 3
Format : AC-3
Format/Info : Audio Coding 3
Commercial name : Dolby Digital
Codec ID : A_AC3
Duration : 1 h 51 min
Bit rate mode : Constant
Bit rate : 192 kb/s
Channel(s) : 2 channels
Channel layout : L R
Sampling rate : 48.0 kHz
Frame rate : 31.250 FPS (1536 SPF)
Bit depth : 16 bits
Compression mode : Lossy
Stream size : 153 MiB (2%)
Title : MVO [2+2], 2.0 192 Kbps
Language : Ukrainian
Service kind : Complete Main
Default : No
Forced : No

Audio #3
ID : 4
Format :
Format/Info : Digital Theater Systems
Codec ID : A_DTS
Duration : 1 h 51 min
Bit rate mode : Constant
Bit rate : 1 509 kb/s
Channel(s) : 6 channels
Channel layout : C L R Ls Rs LFE
Sampling rate : 48.0 kHz
Frame rate : 93.750 FPS (512 SPF)
Bit depth : 24 bits
Compression mode : Lossy
Delay relative to video : 11 ms
Stream size : 1.18 GiB (14%)
Title : .1509.Kbps English (Blu-ray USA)
Language : English
Default : No
Forced : No

Text #1
ID : 5
Format : UTF-8
Codec ID : S_TEXT/UTF8
Codec ID/Info : UTF-8 Plain Text
Duration : 1 h 50 min
Bit rate : 67 b/s
Count of elements : 1366
Stream size : 54.9 KiB (0%)
Title : English (Full)
Language : English
Default : No
Forced : No

Text #2
ID : 6
Format : UTF-8
Codec ID : S_TEXT/UTF8
Codec ID/Info : UTF-8 Plain Text
Duration : 1 h 50 min
Bit rate : 72 b/s
Count of elements : 1519
Stream size : 58.7 KiB (0%)
Title : English (SDH)
Language : English
Default : No
Forced : No

Text #3
ID : 7
Format : UTF-8
Codec ID : S_TEXT/UTF8
Codec ID/Info : UTF-8 Plain Text
Duration : 1 h 50 min
Bit rate : 81 b/s
Count of elements : 1523
Stream size : 65.9 KiB (0%)
Title : English (SDH-Colored)
Language : English
Default : No
Forced : No

Menu
00:00:00.000 : en:Chapter 00
00:06:26.719 : en:Chapter 01
00:09:57.430 : en:Chapter 02
00:13:23.636 : en:Chapter 03
00:17:10.946 : en:Chapter 04
00:22:08.493 : en:Chapter 05
00:27:46.081 : en:Chapter 06
00:31:46.821 : en:Chapter 07
00:36:56.255 : en:Chapter 08
00:42:52.736 : en:Chapter 09
00:45:10.207 : en:Chapter 10
00:54:17.170 : en:Chapter 11
00:58:33.092 : en:Chapter 12
01:02:21.988 : en:Chapter 13
01:04:30.032 : en:Chapter 14
01:07:11.944 : en:Chapter 15
01:12:59.124 : en:Chapter 16
01:17:25.265 : en:Chapter 17
01:25:00.095 : en:Chapter 18
01:28:02.819 : en:Chapter 19
01:31:05.626 : en:Chapter 20
01:35:11.122 : en:Chapter 21
01:44:14.873 : en:Chapter 22
01:45:17.102 : en:Chapter 23
Скріншоти



Над доріжками працювали: Sando7, patriot2305
Джерело: &
Особиста оцінка: 0 - не дивився


 Трекер:    Зареєстрований   

Завантажити / скачати фільм українською



відео для новачків



 Зареєстрований:   2019-02-20 14:53
 Розмір:   8.21 GB 
 Оцінка фільму:   9.2/10 (Голосів: 20)
   
Інші релізи
   Малавіта (Malavita) / The Family (2013) 1080p H.265 2xUkr/Eng | Sub Eng -Star-Lord-  2 / 0   4.86 GB   2019-02-20 21:27 
   Малавіта (Malavita) / The Family (2013) AVC 2xUkr/Eng | Sub Eng patriot2305  9 / 0   2.55 GB   2019-02-20 10:05 
   Малавіта (Malavita) / The Family (2013) Remux 1080p 2xUkr/Eng | Sub Eng/Spa kryk-v.ya.  2 / 0   29.36 GB   2019-02-19 15:19 
   Малавіта (Malavita) / The Family (2013) 720р Ukr/Eng Sando7  5 / 0   4.09 GB   2013-12-08 00:06 
   Малавіта (Malavita) / The Family (2013) Ukr/Eng patriot2305  4 / 0   2.18 GB   2013-12-07 23:19 
   Малавіта (Malavita) / The Family (2013) patriot2305  14 / 0   1.44 GB   2013-12-07 16:45 
staf777 
Відео Гуртом - підтримка та поширення
Відео Гуртом - підтримка та поширення


З нами з: 16.11.16
Востаннє: 18.04.19
Повідомлень: 2258

2018-02-12 11:55  
Чому у всіх інших релізах - Тривалість: 01:51:13 а ні 01:51:33
ridley 
Частий відвідувач


З нами з: 20.01.18
Востаннє: 21.06.18
Повідомлень: 28

2018-02-12 12:03  
Найкращий фільм Бессона після Леона. Що в нього виходить найкраще - це зображення складних стосунків, але чомусь багато хто думає, що це космічні опери. П'ятий елемент мені не до смаку, наприклад.
igor911 
Відео Гуртом
Відео Гуртом


З нами з: 18.01.08
Востаннє: 19.04.19
Повідомлень: 12308

2018-02-13 02:14  
staf777 написано:
Чому у всіх інших релізах - Тривалість: 01:51:13

staf777 написано:
USA Transfer,

Мабуть вони з блуреїв інших видань, а не американського. Сподіваюсь, тут розсинхрону немає через це?

staf777 
Відео Гуртом - підтримка та поширення
Відео Гуртом - підтримка та поширення


З нами з: 16.11.16
Востаннє: 18.04.19
Повідомлень: 2258

2018-02-13 11:59  
igor911 написано:
Мабуть вони з блуреїв інших видань, а не американського. Сподіваюсь, тут розсинхрону немає через це?

Ні розсинхрону нема до речі у ріпі аві теж тривалість: 01:51:33

STALKER_SLX 
Новенький


З нами з: 09.04.10
Востаннє: 15.04.19
Повідомлень: 22

2018-08-05 10:11  
Шановні модератори, підкажіть - більш якісна звукова доріжка не з"явилася?!
igor911 
Відео Гуртом
Відео Гуртом


З нами з: 18.01.08
Востаннє: 19.04.19
Повідомлень: 12308

2018-08-05 10:15  
STALKER_SLX написано:
більш якісна звукова доріжка не з"явилася?

ні. Але за відгуками якість тут добра https://toloka.to/t51513#610427 і з цією ж якістю (доріжкою з Гуртом) показували по ICTV https://toloka.to/t51513#688677

STALKER_SLX 
Новенький


З нами з: 09.04.10
Востаннє: 15.04.19
Повідомлень: 22

2018-08-05 11:43  
Дякую Вам, igor911 ! Підкажіть ще: чи в даному релізі такий самий по якості звук як і тут https://toloka.to/t51513 і https://toloka.to/t52093 ?!
igor911 
Відео Гуртом
Відео Гуртом


З нами з: 18.01.08
Востаннє: 19.04.19
Повідомлень: 12308

2018-08-05 11:46  
STALKER_SLX, у всіх існуючих на даний момент релізах цього фільму на Толоці однаковий звук.
staf777 
Відео Гуртом - підтримка та поширення
Відео Гуртом - підтримка та поширення


З нами з: 16.11.16
Востаннє: 18.04.19
Повідомлень: 2258

2019-02-20 14:53  
Додав доріжку від 
Ваш часовий пояс: GMT + 2 Години

Нова тема   Відповісти