Хто я / Who Am I - Kein System ist sicher (2014) Remux 1080p Ukr/Ger | Sub Ukr/Eng/Ger

Нові коментарі

Нова тема   Відповісти
Автор Повідомлення
IronBee 
Поважний учасник


З нами з: 08.02.10
Востаннє: 14.11.19
Повідомлень: 225

2018-02-11 20:36  
Хто я / Who Am I - Kein System ist sicher (2014) Remux 1080p Ukr/Ger | Sub Ukr/Eng/Ger

Хто я / Who Am I - Kein System ist sicher (2014) Remux 1080p Ukr/Ger | Sub Ukr/Eng/Ger


Жанр: трилер
Країна: Німеччина



Кінокомпанія: Deutsche Columbia Pictures Film Produktion, Seven Pictures, Wiedemann & Berg Filmproduktion
Режисер: Баран бо Одар
Актори: Том Шилінг, Еліас М’Барек, Ганна Герцшпрунг, Вотан Вільке Мерінг, Антуан Моно, Тріне Дюргольм

Сюжет:
У центрі сюжету юний комп'ютерний геній з Німеччини, який отримує запрошення вступити до лав антиурядової хакерської організації, учасники якої хочуть, щоб їх спрямована проти байдужої більшості діяльність була помічена на міжнародному рівні.


Тривалість: 01:41:47
Якість: Remux
Відео:
кодек:
розмір кадру: 1920 х 1080
бітрейт: 29,7 Mб/с

Аудіо # 1:
мова: українська
переклад: багатоголосий закадровий
кодек: 2.0
бітрейт: 192 кб/с

Аудіо # 2:
мова: німецька
переклад: оригінал
кодек: -HD MA 5.1
бітрейт: 3986 кб/с

Субтитри:
мова: українська
тип: програмні (м'які)
формат: *.srt

Субтитри:
мова: англійська
тип: пререндерні
формат: *.PGS

Субтитри:
мова: німецька
тип: пререндерні
формат: *.PGS
Info
General
Unique ID : 233580303817980643497007066278339833364 (0xAFB9EE1E961F89A0B148A60AC3586E14)
Complete name : D:\Films\Хто я Who Am I - Kein System ist sicher (2014) Remux 1080p UkrDeu Sub UkrEngDeu[Hurtom].
Format :
Format version : Version 4 / Version 2
File size : 24.1 GiB
Duration : 1 h 41 min
Overall bit rate mode : Variable
Overall bit rate : 34.0 Mb/s
Encoded date : UTC 2018-02-11 13:45:50
Writing application : v20.0.0 ('I Am The Sun') 64-bit
Writing library : libebml v1.3.5 + v1.4.8

Video
ID : 1
Format : AVC
Format/Info : Advanced Video Codec
Format profile : [email protected]
Format settings : CABAC / 4 Ref Frames
Format settings, CABAC : Yes
Format settings, ReFrames : 4 frames
Codec ID : V_MPEG4/ISO/AVC
Duration : 1 h 41 min
Bit rate mode : Variable
Bit rate : 29.7 Mb/s
Maximum bit rate : 33.0 Mb/s
Width : 1 920 pixels
Height : 1 080 pixels
Display aspect ratio : 16:9
Frame rate mode : Constant
Frame rate : 25.000 FPS
Color space : YUV
Chroma subsampling : 4:2:0
Bit depth : 8 bits
Scan type : MBAFF
Scan type, store method : Interleaved fields
Scan order : Top Field First
Bits/(Pixel*Frame) : 0.574
Stream size : 21.1 GiB (88%)
Default : Yes
Forced : No

Audio #1
ID : 2
Format : AC-3
Format/Info : Audio Coding 3
Codec ID : A_AC3
Duration : 1 h 41 min
Bit rate mode : Constant
Bit rate : 192 kb/s
Channel(s) : 2 channels
Channel positions : Front: L R
Sampling rate : 48.0 kHz
Frame rate : 31.250 FPS (1536 SPF)
Bit depth : 16 bits
Compression mode : Lossy
Stream size : 140 MiB (1%)
Language : Ukrainian
Service kind : Complete Main
Default : Yes
Forced : No

Audio #2
ID : 3
Format :
Format/Info : Digital Theater Systems
Format profile : MA / Core
Codec ID : A_DTS
Duration : 1 h 41 min
Bit rate mode : Variable / Constant
Bit rate : 3 986 kb/s / 1 509 kb/s
Channel(s) : 6 channels
Channel positions : Front: L C R, Side: L R, LFE
Sampling rate : 48.0 kHz
Frame rate : 93.750 FPS (512 SPF)
Bit depth : 24 bits
Compression mode : Lossless / Lossy
Stream size : 2.83 GiB (12%)
Language : German
Default : No
Forced : No

Text #1
ID : 4
Format : UTF-8
Codec ID : S_TEXT/UTF8
Codec ID/Info : UTF-8 Plain Text
Duration : 1 h 37 min
Bit rate : 90 b/s
Count of elements : 1154
Stream size : 64.8 KiB (0%)
Language : Ukrainian
Default : Yes
Forced : No

Text #2
ID : 5
Format : PGS
Muxing mode : zlib
Codec ID : S_HDMV/PGS
Codec ID/Info : Picture based subtitle format used on BDs/HD-DVDs
Duration : 1 h 37 min
Bit rate : 24.0 kb/s
Count of elements : 2030
Stream size : 16.7 MiB (0%)
Language : English
Default : No
Forced : No

Text #3
ID : 6
Format : PGS
Muxing mode : zlib
Codec ID : S_HDMV/PGS
Codec ID/Info : Picture based subtitle format used on BDs/HD-DVDs
Duration : 1 h 37 min
Bit rate : 33.1 kb/s
Count of elements : 2212
Stream size : 23.1 MiB (0%)
Language : German
Default : No
Forced : No
Скріншоти




Джерело: &
Особиста оцінка: 10 - без зайвих вагань рекомендую всім!


Золотий реліз (завантажене не впливає на рейтинг)
 Трекер:    Зареєстрований   

Завантажити / скачати фільм українською



відео для новачків



 Зареєстрований:   2018-02-11 20:36
 Розмір:   24.14 GB 
 Оцінка фільму:   9.3/10 (Голосів: 15)
   
igor911 
Модератор відео


З нами з: 18.01.08
Востаннє: 17.11.19
Повідомлень: 13656

2018-02-11 22:48  
Скріншоти чомусь 960х600, треба замінити на оригінального розміру.
IronBee 
Поважний учасник


З нами з: 08.02.10
Востаннє: 14.11.19
Повідомлень: 225

2018-02-11 23:37  
igor911
виправив

nera2x2 
Новенький


З нами з: 08.10.14
Востаннє: 17.11.19
Повідомлень: 6

2018-02-15 16:22  
Дякую , гарне кіно , рідкість зараз таке побачити.
Rabotnik UA 
Новенький


З нами з: 31.08.15
Востаннє: 17.11.19
Повідомлень: 22

2018-03-13 20:56  
nera2x2
враховуючи той факт, що фільм німецький - дуже підтримую.
критики знайдуть багато чого для своєї творчості, але фільм вартий перегляду та достойний свого рейтингу як на толоці так і на imdb.

Ваш часовий пояс: GMT + 2 Години

Нова тема   Відповісти