Коломбіана / Colombiana (2011) 1080p Ukr/Eng | Sub Ukr/Eng

Нові коментарі

Нова тема   Відповісти
Автор Повідомлення
staf777 
Відео Гуртом - підтримка та поширення
Відео Гуртом - підтримка та поширення


З нами з: 16.11.16
Востаннє: 20.09.20
Повідомлень: 4023

2018-02-11 17:14  
Коломбіана / Colombiana (2011) 1080p Ukr/Eng | Sub Ukr/Eng

Коломбіана / Colombiana (2011) 1080p Ukr/Eng | Sub Ukr/Eng


Жанр: екшн, кримінальний, драма
Країна: США, Франція



Кінокомпанія: Europa Corp., TF1 Films Production, Grive Productions
Режисер: Олівье Мегатон
Актори: Зоі Салдана, Амендла Стенберг, Майкл Вартан, Кліфф Кертіс, Каллум Блу, Жорді Молья, Макс Мартіні, Ленні Джеймс, Грем МакТавіш, Моніка Акоста

Сюжет:
Кат було всього десять, коли на її очах невідомі жорстоко вбили її батьків. Дівчинка зуміла втекти від бандитів і знайти притулок в Чикаго у свого дядька. Тепер Кат професійний вбивця. За будь-яку ціну вона повинна розплутати клубок давнього злочину і помститися за смерть батьків. Всі сліди ведуть до колумбійського наркобарона Дона Лусіа. Єдина нитка, що поєднує дівчину-вбивцю зі світом звичайних людей, — це її коханий, який не здогадується, чим насправді займається його подружка…


Тривалість: 01:43:27 [Театральна версія]
Якість: 1080p
Відео:
кодек:
розмір кадру: 1920 x 816
бітрейт: 14 Мб/с

Аудіо # 1:
мова: українська
переклад: багатоголосий закадровий (псевдодубляж)
кодек: 2.0
бітрейт: 192 кб/с

Аудіо # 2:
мова: англійська
переклад: оригінал
кодек: 5.1
бітрейт: 1509 кб/с

Субтитри # 1:
мова: українська
тип: програмні (м'які)
формат: *.srt

Субтитри # 2:
мова: англійська
тип: програмні (м'які)
формат: *.srt
Info
General
Unique ID : 243197887506400675967100209119513161002 (0xB6F6359AFA6AD3CB91F06234F6722D2A)
Complete name : K:\Майбутні релізи\Colombiana (2011) 1080p [Ukr Eng] [Sub Ukr Eng][Hurtom].
Format :
Format version : Version 4 / Version 2
File size : 11.3 GiB
Duration : 1 h 43 min
Overall bit rate : 15.7 Mb/s
Movie name : Colombiana (2011) 1080p [Ukr Eng] [Sub Ukr Eng][Hurtom]
Encoded date : UTC 2018-02-11 12:46:01
Writing application : v9.8.0 ('Kuglblids') 64bit
Writing library : libebml v1.3.4 + v1.4.5

Video
ID : 1
Format : AVC
Format/Info : Advanced Video Codec
Format profile : [email protected]
Format settings, CABAC : Yes
Format settings, ReFrames : 5 frames
Codec ID : V_MPEG4/ISO/AVC
Duration : 1 h 43 min
Bit rate : 14.0 Mb/s
Width : 1 920 pixels
Height : 816 pixels
Display aspect ratio : 2.35:1
Frame rate mode : Constant
Frame rate : 25.000 FPS
Color space : YUV
Chroma subsampling : 4:2:0
Bit depth : 8 bits
Scan type : Progressive
Bits/(Pixel*Frame) : 0.357
Stream size : 10.1 GiB (89%)
Writing library : core 116 r2074 2641b9e
Encoding settings : cabac=1 / ref=5 / deblock=1:-3:-3 / analyse=0x3:0x113 / me=umh / subme=10 / psy=1 / psy_rd=1.00:0.10 / mixed_ref=1 / me_range=32 / chroma_me=1 / trellis=2 / 8x8dct=1 / cqm=0 / deadzone=21,11 / fast_pskip=0 / chroma_qp_offset=-5 / threads=9 / sliced_threads=0 / nr=0 / decimate=0 / interlaced=0 / bluray_compat=0 / constrained_intra=0 / bframes=6 / b_pyramid=2 / b_adapt=2 / b_bias=0 / direct=3 / weightb=1 / open_gop=0 / weightp=2 / keyint=250 / keyint_min=25 / scenecut=40 / intra_refresh=0 / rc_lookahead=40 / rc=2pass / mbtree=1 / bitrate=14000 / ratetol=1.0 / qcomp=0.60 / qpmin=0 / qpmax=69 / qpstep=4 / cplxblur=20.0 / qblur=0.5 / vbv_maxrate=40000 / vbv_bufsize=40000 / nal_hrd=none / ip_ratio=1.40 / aq=2:0.80
Language : English
Default : Yes
Forced : Yes

Audio #1
ID : 2
Format : AC-3
Format/Info : Audio Coding 3
Mode extension : CM (complete main)
Format settings, Endianness : Big
Codec ID : A_AC3
Duration : 1 h 43 min
Bit rate mode : Constant
Bit rate : 192 kb/s
Channel(s) : 2 channels
Channel positions : Front: L R
Sampling rate : 48.0 kHz
Frame rate : 31.250 FPS (1536 spf)
Bit depth : 16 bits
Compression mode : Lossy
Stream size : 142 MiB (1%)
Language : Ukrainian
Default : Yes
Forced : Yes

Audio #2
ID : 3
Format :
Format/Info : Digital Theater Systems
Mode : 16
Format settings, Endianness : Big
Codec ID : A_DTS
Duration : 1 h 43 min
Bit rate mode : Constant
Bit rate : 1 509 kb/s
Channel(s) : 6 channels
Channel positions : Front: L C R, Side: L R, LFE
Sampling rate : 48.0 kHz
Frame rate : 93.750 FPS (512 spf)
Bit depth : 16 bits
Compression mode : Lossy
Stream size : 1.09 GiB (10%)
Language : English
Default : No
Forced : No

Text #1
ID : 4
Format : UTF-8
Codec ID : S_TEXT/UTF8
Codec ID/Info : UTF-8 Plain Text
Duration : 1 h 33 min
Bit rate : 64 b/s
Count of elements : 798
Stream size : 44.3 KiB (0%)
Language : Ukrainian
Default : No
Forced : No

Text #2
ID : 5
Format : UTF-8
Codec ID : S_TEXT/UTF8
Codec ID/Info : UTF-8 Plain Text
Duration : 1 h 33 min
Bit rate : 38 b/s
Count of elements : 651
Stream size : 26.5 KiB (0%)
Language : English
Default : No
Forced : No
Скріншоти



Українська доріжка : xslim
Синхронізація звуку та субтитри: karvai0
Постер: hellforces
Запис із ТБ: slavik_v_z

Джерело: &
Особиста оцінка: 0 - не дивився


 Трекер:    Зареєстрований   

Завантажити / скачати фільм українською



відео для новачків



 Зареєстрований:   2018-02-11 17:14
 Розмір:   11.34 GB 
 Оцінка фільму:   8.2/10 (Голосів: 15)
   
Інші релізи
   Коломбіана / Colombiana (2011) Ukr/Eng | Sub Ukr/Eng xslim  11 / 0   2.05 GB   2012-06-29 04:27 
   Коломбіана / Colombiana (2011) 720p Ukr/Eng AngryBirdsUA  0 / 0   4.49 GB   2011-12-10 21:00 
   Коломбіана / Colombiana (2011) AVC Ukr/Eng AngryBirdsUA  3 / 0   1.7 GB   2011-12-10 20:44 
Keltukha 
Новенький


З нами з: 18.03.17
Востаннє: 02.08.20
Повідомлень: 9

2018-12-24 20:31  
Доброго вечора, піддайте "газку" будь-ласка, бо клієнт каже, що хоче аж 18 годин то збиратти Cry (2)

Заздалегіть вдячний!

[email protected] 
VIP


З нами з: 25.03.17
Востаннє: 20.09.20
Повідомлень: 551

2019-01-12 00:08  
Гарний фільм.
antik_2008 
Релізер і модератор відео


З нами з: 20.10.08
Востаннє: 20.09.20
Повідомлень: 4133

2019-10-05 00:24  
Remux Чекати?
Ваш часовий пояс: GMT + 2 Години

Нова тема   Відповісти