Морський бій / Battleship (2012) 1080p 2xUkr/Eng | Sub Ukr/Eng

Нові коментарі

Нова тема   Відповісти
Автор Повідомлення
staf777 
Відео Гуртом - підтримка та поширення
Відео Гуртом - підтримка та поширення


З нами з: 16.11.16
Востаннє: 16.10.19
Повідомлень: 2979

2018-02-11 10:30  
Морський бій / Battleship (2012) 1080p 2xUkr/Eng | Sub Ukr/Eng

Морський бій / Battleship (2012) 1080p 2xUkr/Eng | Sub Ukr/Eng
Альтернативний постер:

Морський бій / Battleship (2012) 1080p 2xUkr/Eng | Sub Ukr/Eng
Жанр: екшн, пригодницький, фантастика
Країна: США



Кінокомпанія: Universal Pictures, Hasbro, Bluegrass Films
Режисер: Пітер Берґ
Актори: Тейлор Кітч, Ліам Нісон, Бруклін Декер, Александр Скашгорд, Ріанна, Пітер МакНікол, Джон Тай, Ґреґорі Д. Ґедсон

Сюжет:
Ми надсилаємо сигнали в космос і чекаємо відповіді. Але чи впевнені ми, що хочемо її отримати? Що якщо прибульці потенційно небезпечні? У 2009 році на конференції у Вашингтоні астронавт Едгар Мітчелл, який побував на Місяці, зробив сенсаційну заяву про існування позаземного життя. Тепер ми знаємо, контакт не просто можливий, він неминучий!


Тривалість: 02:11:14
Якість: 1080p
Відео:
кодек:
розмір кадру: 1920x800
бітрейт: 13,9 Mб/с

Аудіо # 1:
мова: українська
переклад: професійний дубльований
кодек: 2.0
бітрейт: 384 кб/с

Аудіо # 2:
мова: українська
переклад: багатоголосий закадровий
кодек: 2.0
бітрейт: 192 кб/с

Аудіо # 3:
мова: англійська
переклад: оригінал
кодек: 5.1
бітрейт: 640 кб/с

[b]Субтитри # 1-2:
(форсовані ,повні)
мова: українська
тип: програмні (м'які)
формат: *.srt

Субтитри # 3-5: (повні, SHD, SDH Colored)
мова: англійська
тип: програмні (м'які)
формат: *.srt
Info
General
Unique ID : 215439155386717159363756402701286030979 (0xA214127236F39C9A8BDC59AFEA78BE83)
Complete name : K:\Фільми HD\Фантастика\Battleship (2012) 1080p [2x Ukr Eng] [Sub Ukr Eng][Hurtom].
Format :
Format version : Version 4 / Version 2
File size : 13.8 GiB
Duration : 2 h 11 min
Overall bit rate : 15.1 Mb/s
Movie name : Battleship (2012) 1080p 2xUkr/Eng | Sub Ukr/Eng [Hurtom]
Encoded date : UTC 2018-02-11 08:55:21
Writing application : v9.8.0 ('Kuglblids') 64bit
Writing library : libebml v1.3.4 + v1.4.5

Video
ID : 1
Format : AVC
Format/Info : Advanced Video Codec
Format profile : [email protected]
Format settings, CABAC : Yes
Format settings, ReFrames : 5 frames
Codec ID : V_MPEG4/ISO/AVC
Duration : 2 h 11 min
Bit rate : 13.9 Mb/s
Width : 1 920 pixels
Height : 800 pixels
Display aspect ratio : 2.40:1
Frame rate mode : Constant
Frame rate : 23.976 (24000/1001) FPS
Color space : YUV
Chroma subsampling : 4:2:0
Bit depth : 8 bits
Scan type : Progressive
Bits/(Pixel*Frame) : 0.376
Stream size : 12.7 GiB (92%)
Title : Battleship (2012)
Writing library : core 125 r2200 999b753
Encoding settings : cabac=1 / ref=5 / deblock=1:-3:-3 / analyse=0x3:0x113 / me=tesa / subme=11 / psy=1 / psy_rd=0.95:0.00 / mixed_ref=1 / me_range=24 / chroma_me=1 / trellis=2 / 8x8dct=1 / cqm=0 / deadzone=21,11 / fast_pskip=1 / chroma_qp_offset=-2 / threads=12 / lookahead_threads=2 / sliced_threads=0 / nr=0 / decimate=1 / interlaced=0 / bluray_compat=0 / constrained_intra=0 / bframes=8 / b_pyramid=2 / b_adapt=2 / b_bias=0 / direct=3 / weightb=1 / open_gop=0 / weightp=2 / keyint=240 / keyint_min=23 / scenecut=40 / intra_refresh=0 / rc=2pass / mbtree=0 / bitrate=13850 / ratetol=1.0 / qcomp=0.65 / qpmin=10 / qpmax=69 / qpstep=4 / cplxblur=20.0 / qblur=0.5 / ip_ratio=1.40 / pb_ratio=1.30 / aq=2:0.60
Language : English
Default : Yes
Forced : No

Audio #1
ID : 2
Format : AC-3
Format/Info : Audio Coding 3
Mode extension : CM (complete main)
Format settings, Endianness : Big
Codec ID : A_AC3
Duration : 2 h 11 min
Bit rate mode : Constant
Bit rate : 384 kb/s
Channel(s) : 2 channels
Channel positions : Front: L R
Sampling rate : 48.0 kHz
Frame rate : 31.250 FPS (1536 spf)
Bit depth : 16 bits
Compression mode : Lossy
Stream size : 360 MiB (3%)
Title : / 5.1 ch / 384 kbps
Language : Ukrainian
Default : Yes
Forced : Yes

Audio #2
ID : 3
Format : AC-3
Format/Info : Audio Coding 3
Mode extension : CM (complete main)
Format settings, Endianness : Big
Codec ID : A_AC3
Duration : 2 h 11 min
Bit rate mode : Constant
Bit rate : 192 kb/s
Channel(s) : 2 channels
Channel positions : Front: L R
Sampling rate : 48.0 kHz
Frame rate : 31.250 FPS (1536 spf)
Bit depth : 16 bits
Compression mode : Lossy
Stream size : 180 MiB (1%)
Title : [UA-MVO]
Language : Ukrainian
Default : No
Forced : No

Audio #3
ID : 4
Format : AC-3
Format/Info : Audio Coding 3
Mode extension : CM (complete main)
Format settings, Endianness : Big
Codec ID : A_AC3
Duration : 2 h 11 min
Bit rate mode : Constant
Bit rate : 640 kb/s
Channel(s) : 6 channels
Channel positions : Front: L C R, Side: L R, LFE
Sampling rate : 48.0 kHz
Frame rate : 31.250 FPS (1536 spf)
Bit depth : 16 bits
Compression mode : Lossy
Stream size : 601 MiB (4%)
Title : / 5.1 ch / 640 kbps / original, BD CEE
Language : English
Default : No
Forced : No

Text #1
ID : 5
Format : UTF-8
Codec ID : S_TEXT/UTF8
Codec ID/Info : UTF-8 Plain Text
Duration : 2 h 8 min
Bit rate : 1 b/s
Count of elements : 33
Stream size : 1.71 KiB (0%)
Title : Forced
Language : Ukrainian
Default : Yes
Forced : Yes

Text #2
ID : 6
Format : UTF-8
Codec ID : S_TEXT/UTF8
Codec ID/Info : UTF-8 Plain Text
Duration : 2 h 4 min
Bit rate : 81 b/s
Count of elements : 1109
Stream size : 74.0 KiB (0%)
Title : Full
Language : Ukrainian
Default : No
Forced : No

Text #3
ID : 7
Format : UTF-8
Codec ID : S_TEXT/UTF8
Codec ID/Info : UTF-8 Plain Text
Duration : 2 h 9 min
Bit rate : 45 b/s
Count of elements : 1386
Stream size : 43.2 KiB (0%)
Title : Full, BD CEE
Language : English
Default : No
Forced : No

Text #4
ID : 8
Format : UTF-8
Codec ID : S_TEXT/UTF8
Codec ID/Info : UTF-8 Plain Text
Duration : 2 h 9 min
Bit rate : 50 b/s
Count of elements : 1489
Stream size : 47.7 KiB (0%)
Title : SDH
Language : English
Default : No
Forced : No

Text #5
ID : 9
Format : UTF-8
Codec ID : S_TEXT/UTF8
Codec ID/Info : UTF-8 Plain Text
Duration : 2 h 9 min
Bit rate : 58 b/s
Count of elements : 1489
Stream size : 55.7 KiB (0%)
Title : SDH, Color
Language : English
Default : No
Forced : No



Подяка пану Skiff за Аудіо №1, пану POMEO за запис Аудіо №2 та пану Arsenfpu за синхронізацію; п.xfstheта та Gelios'у за українські субтитри.
Джерело: &
Особиста оцінка: 0 - не дивився


 Трекер:    Зареєстрований   

Завантажити / скачати фільм українською



відео для новачків



 Зареєстрований:   2018-02-11 12:36
 Розмір:   13.81 GB 
 Оцінка фільму:   8.8/10 (Голосів: 23)
   
Інші релізи
MutuLI 
Відео Гуртом - фільмокрай
Відео Гуртом - фільмокрай


З нами з: 08.03.09
Востаннє: 15.10.19
Повідомлень: 1514

2018-02-11 13:42  
перша доріжка :Bit rate : 384 kb/s Channel(s) : 2 channels
друга доріжка :Bit rate : 192 kb/s Channel(s) : 2 channels
Виправте.

igor911 
Модератор відео


З нами з: 18.01.08
Востаннє: 16.10.19
Повідомлень: 13518

2018-02-11 13:52  
MutuLI написано:
Виправте

виправив

Kumcheg1995 
Частий відвідувач


З нами з: 05.01.17
Востаннє: 16.10.19
Повідомлень: 29

2018-02-11 14:37  
Дуже дякую, давно чекав на 1080р)
Ваш часовий пояс: GMT + 2 Години

Нова тема   Відповісти