XXIII Зимові Олімпійські ігри 2018. Церемонія відкриття (09.02.2018) 1080p

Нові коментарі

Нова тема   Відповісти
Останній раз роздавалося 1usb1 (2018-12-01)
Автор Повідомлення
sergiyko.5 
VIP


З нами з: 25.02.16
Востаннє: 27.10.20
Повідомлень: 3626

2018-02-10 22:27  
XXIII Зимові Олімпійські ігри 2018. Церемонія відкриття (09.02.2018) 1080p

XXIII Зимові Олімпійські ігри 2018. Церемонія відкриття (09.02.2018) 1080p

Телеканал: UA:Перший/Telesport

Опис:
У південнокорейському місті Пхьончхан стартували XXIІI зимові Олімпійські ігри, які триватимуть з 9 до 25 лютого.
О 13:00 за київським часом розпочалася церемонія відкриття. Її транслює UA:Перший. Цей телеканал показуватиме і решту Ігор-2018.
Україну в Олімпіаді-2018 представляють 33 спортсмени. Наші олімпійці змагатимуться у 9 з 15 видів спорту, а саме: у біатлоні (11 спортсменів), фігурному катанні (4 спортсмени), санному спорті (6 спортсменів), фристайлі (3 спортсмени), лижних гонках (4 спортсмени), гірськолижному спорті (2 спортсмени), сноубордингу (1 спортсмен), скелетоні (1 спортсмен) і лижному двоборстві (1 спортсмен).
В змаганнях візьмуть участь 2500 атлетів із 92 країн світу, які розіграють 102 комплекти нагород.
Україна претендує на медалі в біатлоні і лижній акробатиці.


Складу олімпійської збірної України:
- біатлон: Дмитро Підручний, Артем Прима, Володимир Семаков, Сергій Семенов, Артем Тищенко, Ірина Варвинець, Юлія Джима, Анастасія Меркушина, Олена Підгрушна, Валя Семеренко, Віта Семеренко;
- гірські лижі: Іван Ковбаснюк, Ольга Книш;
- лижне двоборство: Віктор Пасічник;
- фрістайл: Олександр Абраменко, Тетяна Петрова, Ольга Полюк;
- санний спорт: Андрій Мандзій, Антон Дукач, Олена Стецьків, Олена Шхумова, двійка Олександр Оболончик/Роман Захарків;
- лижні гонки: Тетяна Антипенко, Марина Анцибор, Олексій Красовський, Андрій Орлик;
- скелетон: Владислав Гераскевич;
- сноуборд: Аннамарі Данча (Чундак);
- фігурне катання: пара Максим Нікітін/Олександра Назарова, Ярослав Паніот, Анна Хниченкова.


Тривалість: 02:17:42
Якість:

Відео: кодек: розмір кадру: 1920 х 1080 бітрейт: 8200 кб/с
Аудіо: мова: українська переклад: оригінал кодек: 2.0 бітрейт: 192 кб/с
Про файл:
General
Unique ID : 298431145226551508126844945377792558807 (0xE083BF75E9B86FFFB87F13C8E9A706D7)
Complete name : D:\Torrents\SPORT\XXIII Зимові Олімпійські ігри 2018. Церемонія відкриття.UA.Перший.09.02.2018.1080p..
Format :
Format version : Version 4 / Version 2
File size : 8.07 GiB
Duration : 2h 17mn
Overall bit rate : 8 393 Kbps
Encoded date : UTC 2018-02-10 20:13:03
Writing application : v19.0.0 ('Brave Captain') 64-bit
Writing library : libebml v1.3.5 + v1.4.8
DURATION : 02:17:42.208000000
NUMBER_OF_FRAMES : 258194
NUMBER_OF_BYTES : 198292992
_STATISTICS_WRITING_APP : v19.0.0 ('Brave Captain') 64-bit
_STATISTICS_WRITING_DATE_UTC : 2018-02-10 20:13:03
_STATISTICS_TAGS : BPS DURATION NUMBER_OF_FRAMES NUMBER_OF_BYTES

Video
ID : 1
Format : AVC
Format/Info : Advanced Video Codec
Format profile : [email protected]
Format settings, CABAC : No
Format settings, ReFrames : 3 frames
Format settings, GOP : M=1, N=12
Codec ID : V_MPEG4/ISO/AVC
Duration : 2h 17mn
Bit rate : 8 034 Kbps
Width : 1 920 pixels
Height : 1 080 pixels
Display aspect ratio : 16:9
Frame rate mode : Constant
Frame rate : 50.000 fps
Color space : YUV
Chroma subsampling : 4:2:0
Bit depth : 8 bits
Scan type : Progressive
Bits/(Pixel*Frame) : 0.077
Stream size : 7.73 GiB (96%)
Language : English
Default : Yes
Forced : No
DURATION : 02:17:42.160000000
NUMBER_OF_FRAMES : 413108
NUMBER_OF_BYTES : 8465477961
_STATISTICS_WRITING_APP : v19.0.0 ('Brave Captain') 64-bit
_STATISTICS_WRITING_DATE_UTC : 2018-02-10 20:13:03
_STATISTICS_TAGS : BPS DURATION NUMBER_OF_FRAMES NUMBER_OF_BYTES

Audio
ID : 2
Format : AC-3
Format/Info : Audio Coding 3
Mode extension : CM (complete main)
Format settings, Endianness : Big
Codec ID : A_AC3
Duration : 2h 17mn
Bit rate mode : Constant
Bit rate : 192 Kbps
Channel(s) : 2 channels
Channel positions : Front: L R
Sampling rate : 48.0 KHz
Compression mode : Lossy
Delay relative to video : -200ms
Stream size : 189 MiB (2%)
Title : 2ch | UA:Перший
Language : Ukrainian
Default : Yes
Forced : No
Скріншоти:


 Трекер:    Зареєстрований   

Завантажити / скачати торрент



відео для новачків



 Зареєстрований:   2018-02-10 22:27
 Розмір:   8.07 GB 
 Оцінка:   8.3/10 (Голосів: 3)
   
sergiyko.5 
VIP


З нами з: 25.02.16
Востаннє: 27.10.20
Повідомлень: 3626

2018-02-10 22:50  
Картинка у файлі не дуже хороша чи погана трансляція чи запис, дивітся скріншоти перед завантаженням.
11FrYkT 
Модератор відео


З нами з: 20.02.11
Востаннє: 26.10.20
Повідомлень: 7007

2018-02-11 08:47  
sergiyko.5 , додайте МІ
Bibliaricus 
Новенький


З нами з: 11.02.18
Востаннє: 11.02.18
Повідомлень: 1

2018-02-11 19:08  
Дякую, чуваче, за роздачу)

Здоров'ячка тобі, тьолочок багато і щоб було натхнення вчасно робити нові файні роздачі)

Electroz 
Відео Гуртом - підтримка та поширення
Відео Гуртом - підтримка та поширення


З нами з: 18.09.14
Востаннє: 27.10.20
Повідомлень: 4137

2018-02-11 19:40  
sergiyko.5 написано:
1080ip

Приберіть

sergiyko.5 
VIP


З нами з: 25.02.16
Востаннє: 27.10.20
Повідомлень: 3626

2018-02-11 20:14  
Electroz
Це наказ!?

Electroz 
Відео Гуртом - підтримка та поширення
Відео Гуртом - підтримка та поширення


З нами з: 18.09.14
Востаннє: 27.10.20
Повідомлень: 4137

2018-02-11 20:15  
sergiyko.5 написано:
Це наказ!?

Ні, особисте прохання.

Ваш часовий пояс: GMT + 2 Години

Нова тема   Відповісти