Валеріан та місто тисячі планет / Valerian and the City of a Thousand Planets (2017) 720p-mini (60 fps)

Нові коментарі

Нова тема   Відповісти
Автор Повідомлення
Drool 
VIP


З нами з: 17.04.10
Востаннє: 22.09.20
Повідомлень: 1548

2018-02-10 23:07  
Валеріан та місто тисячі планет / Valerian and the City of a Thousand Planets (2017) 720p-mini (60 fps)

Валеріан та місто тисячі планет / Valerian and the City of a Thousand Planets (2017) 720p-mini (60 fps)


Жанр: фантастика, фентезі, бойовик, пригодницький
Країна: Франція, Китай, Бельгія, Німеччина, Об'єднані Арабські Емірати, США, Велика Британія, Канада


Діти до 13 років допускаються на фільм тільки з батьками
Настійне застереження батькам. Деякий матеріал може бути невідповідним для дітей до 13 років. Цей рейтинг показує, що оцінений фільм може бути невідповідним для дітей. Батьки повинні бути особливо обережні, дозволяючи своїм маленьким дітям перегляд. Грубе або тривале насильство відсутнє; сексуальна орієнтація на наготу відсутня; деякі сцени вживання наркотиків можуть бути присутніми; можна почути одиничні вживання грубої сексуальної лексики. Присутня епізодична оголеність (не враховуючи репродуктивні органи). Присутні сексуальні натяки і натяки на гомосексуалізм чи сексуальні збочення.
Кінокомпанія: EuropaCorp, Fundamental Films, Grive Productions, TF1 Films Production
Режисер: Люк Бессон
Актори: Дейн ДеГаан, Кара Делевінь, Клайв Овен, Ріанна, Ітан Гоук, Гербі Генкок, Кріс Ву, Сем Спруелл, Рутґер Гауер, Ален Шаба, Пітер Гадсон, Ксавьє Джаннолі, Луї Летерьє, Саша Лусс, Емілін Валаде, Елізабет Дебікі, Полін Хоро, Джон Ґудмен, Леонід Глущенко та інші

Сюжет:
На дворі 28 століття. Валеріан і Лорелін – космічні спецагенти. Їх шлях лежить на Альфу – Місто тисячі планет, яке постійно розширюється, і де різні цивілізації протягом багатьох років обмінювалися знаннями, досвідом і культурою. Завдання Валеріана і Лорелін від Міністерства Захисту – підтримувати порядок всюди, де є люди. У центрі Альфи починають відбуватися дивні події, у чому провиною темні сили. Існування Міста тисячі планет знаходиться під загрозою, а значить і Всесвіт у небезпеці. Валеріан і Лорелін повинні знайти загрозу і знищити її, інакше постраждають мільйони невинних особин різних видів.


Тривалість: 02:16:40
Якість: 720p-mini [NOR-Transfer]
Відео:
кодек:
розмір кадру: 1280 х 536
бітрейт: 4920 кб/с
кадрів на секунду: 60.000 к/с

Аудіо:
мова: українська
переклад: професійний дубльований
кодек: 2.0
бітрейт: 192 кб/с

Субтитри (Forced):
мова: українська
тип: програмні (м'які)
формат: *.srt
Info
Код:
General
Unique ID                                : 106738234270715432016543145858353265746 (0x504D0941BC5EF6562401B0E9CB9EFC52)
Complete name                            : /mnt/disk_e/Video/Films/Valerian.and.the.City.of.a.Thousand.Planets.2017.Ukr.Dub-2.0..720p-mini.60fps.
Format                                   :
Format version                           : Version 4 / Version 2
File size                                : 4.88 GiB
Duration                                 : 2 h 16 min
Overall bit rate                         : 5 116 kb/s
Movie name                               : Валеріан та місто тисячі планет / Valerian and the City of a Thousand Planets (2017) 720p-mini [60 fps] | NNNB
Encoded date                             : UTC 2018-02-10 19:43:04
Writing application                      : v8.2.0 ('World of Adventure') 64bit
Writing library                          : libebml v1.3.1 + v1.4.2
Cover                                    : Yes
Attachments                              : cover.png

Video
ID                                       : 1
Format                                   : AVC
Format/Info                              : Advanced Video Codec
Format profile                           : [email protected]
Format settings                          : CABAC / 9 Ref Frames
Format settings, CABAC                   : Yes
Format settings, RefFrames               : 9 frames
Codec ID                                 : V_MPEG4/ISO/AVC
Duration                                 : 2 h 16 min
Bit rate                                 : 4 920 kb/s
Width                                    : 1 280 pixels
Height                                   : 536 pixels
Display aspect ratio                     : 2.40:1
Frame rate mode                          : Constant
Frame rate                               : 60.000 FPS
Color space                              : YUV
Chroma subsampling                       : 4:2:0
Bit depth                                : 8 bits
Scan type                                : Progressive
Bits/(Pixel*Frame)                       : 0.120
Stream size                              : 4.70 GiB (96%)
Title                                    : Валеріан та місто тисячі планет / Valerian and the City of a Thousand Planets (2017) 720p-mini [60 fps] | NNNB
Writing library                          : core 146 r2538 121396c
Encoding settings                        : cabac=1 / ref=9 / deblock=1:0:0 / analyse=0x3:0x113 / me=umh / subme=10 / psy=1 / psy_rd=1.00:0.00 / mixed_ref=1 / me_range=24 / chroma_me=1 / trellis=2 / 8x8dct=1 / cqm=0 / deadzone=21,11 / fast_pskip=0 / chroma_qp_offset=-2 / threads=12 / lookahead_threads=1 / sliced_threads=0 / nr=0 / decimate=1 / interlaced=0 / bluray_compat=0 / constrained_intra=0 / bframes=5 / b_pyramid=2 / b_adapt=2 / b_bias=0 / direct=3 / weightb=1 / open_gop=0 / weightp=2 / keyint=250 / keyint_min=25 / scenecut=40 / intra_refresh=0 / rc=2pass / mbtree=0 / bitrate=4920 / ratetol=1.0 / qcomp=0.60 / qpmin=0 / qpmax=69 / qpstep=4 / cplxblur=20.0 / qblur=0.5 / ip_ratio=1.40 / pb_ratio=1.30 / aq=3:0.90
Default                                  : Yes
Forced                                   : Yes

Audio
ID                                       : 2
Format                                   : AC-3
Format/Info                              : Audio Coding 3
Format settings, Endianness              : Big
Codec ID                                 : A_AC3
Duration                                 : 2 h 16 min
Bit rate mode                            : Constant
Bit rate                                 : 192 kb/s
Channel(s)                               : 2 channels
Channel positions                        : Front: L R
Sampling rate                            : 48.0 kHz
Frame rate                               : 31.250 FPS (1536 SPF)
Bit depth                                : 16 bits
Compression mode                         : Lossy
Stream size                              : 188 MiB (4%)
Title                                    : Dub [Postmodern, Megogo] 2.0 [stereo] 192 Kbps
Language                                 : Ukrainian
Service kind                             : Complete Main
Default                                  : Yes
Forced                                   : Yes

Text
ID                                       : 3
Format                                   : UTF-8
Codec ID                                 : S_TEXT/UTF8
Codec ID/Info                            : UTF-8 Plain Text
Duration                                 : 1 h 42 min
Bit rate                                 : 0 b/s
Count of elements                        : 20
Stream size                              : 600 Bytes (0%)
Title                                    : Ukr Forced
Language                                 : Ukrainian
Default                                  : Yes
Forced                                   : Yes
Скріншоти
Джерело відеоряду:
Аудіодоріжку та форсовані субтитри взято з релізу 720p.
Особиста оцінка: 9 - давно не бачив настільки якісне кіно


 Трекер:    Зареєстрований   

Завантажити / скачати фільм українською



відео для новачків



 Зареєстрований:   2018-02-10 23:13
 Розмір:   4.88 GB 
 Оцінка фільму:   9.6/10 (Голосів: 33)
   
robofob 
Частий відвідувач


З нами з: 05.05.16
Востаннє: 15.09.20
Повідомлень: 47

2018-02-11 00:00  
Це, часом, не та версія, де невідомо хто на початку українські символи повирізав вибачте?
Drool 
VIP


З нами з: 17.04.10
Востаннє: 22.09.20
Повідомлень: 1548

2018-02-11 00:43  
robofob написано:
Це, часом, не та версія, де невідомо хто на початку українські символи повирізав вибачте?
Ви про ці символи?

zimersz 
Частий відвідувач


З нами з: 14.12.14
Востаннє: 22.09.20
Повідомлень: 45

2018-02-11 00:55  
Тут добре чутно голос бортового комп'ютера?
Drool 
VIP


З нами з: 17.04.10
Востаннє: 22.09.20
Повідомлень: 1548

2018-02-11 01:21  
zimersz написано:
Тут добре чутно голос бортового комп'ютера?
Додав зразок відео, де якраз чути бортовий комп'ютер.
zimersz 
Частий відвідувач


З нами з: 14.12.14
Востаннє: 22.09.20
Повідомлень: 45

2018-02-11 11:20  
Цитата:
Додав зразок відео, де якраз чути бортовий комп'ютер.

А 1080 плануєте?

Drool 
VIP


З нами з: 17.04.10
Востаннє: 22.09.20
Повідомлень: 1548

2018-02-12 09:19  
zimersz написано:
А 1080 плануєте?
Ні. Це тяжкувати для мого укуртелекому на роздачу і позбавлено сенсу на моєму HD-моніторі. Але ніхто не заважає вам взяти готовий відеоряд, який вже є, накласти доріжку і викласти - і собі заполучите і інші подякують Wink (1)
Electroz 
Відео Гуртом - підтримка та поширення
Відео Гуртом - підтримка та поширення


З нами з: 18.09.14
Востаннє: 22.09.20
Повідомлень: 4016

2018-02-12 09:24  
Drool
Варто ще вказати джерело аудіодоріжки.

Drool 
VIP


З нами з: 17.04.10
Востаннє: 22.09.20
Повідомлень: 1548

2018-02-12 13:15  
Electroz написано:
Варто ще вказати джерело аудіодоріжки.
DONE.
mutomba 
VIP


З нами з: 20.10.13
Востаннє: 22.09.20
Повідомлень: 361

2018-06-16 23:50  
Нарешті подивився.
Мені сподобалось. Гарне кіно Happy

Ваш часовий пояс: GMT + 2 Години

Нова тема   Відповісти