Медіум (Сезон 2) / Medium (Season 2) (2005-2006) 720p Ukr/Eng

Нові коментарі

Нова тема   Відповісти
Автор Повідомлення
Anonymous 







2018-02-10 20:11  
Медіум (Сезон 2) / Medium (Season 2) (2005-2006) 720p Ukr/Eng

Медіум (Сезон 2) / Medium (Season 2) (2005-2006) 720p Ukr/Eng


Жанр: драма, кримінальний, містика
Країна: США



Кінокомпанія: Picturemaker Productions, Grammnet Productions, Paramount Network Television
Режисер: Ґленн Ґордон Керон (Glenn Gordon Caron)
Актори: Патриція Аркетт (Patricia Arquette), Міґель Сандовал (Miguel Sandoval), Софья Вассільєва (Sofia Vassilieva), Марія Ларк (Maria Lark), Джейк Вебер (Jake Weber), Девід К'юбітт (David Cubitt) та інші

Сюжет:
Звичайна домогосподарка, мати трьох дітей володіє унікальним даром - бачить уві сні реальні вбивства. Жінка-медіум одночасно допомагає поліції у затриманні злочинців і намагається не зруйнувати свою сім’ю.

Тривалість: 1 серія: ~40 хв. (цілком серій: 22)
Перелік серій
01) When Push Comes to Shove: Part 2
02) The Song Remains the Same
03) Time Out of Mind
04) Light Sleeper
05) Sweet Dreams
06) Dead Aim
07) Judge, Jury and Executioner
08) Too Close to Call
09) Still Life
10) The Reckoning
11) Method to His Madness
12) Doctor's Orders
13) Raising Cain
14) A Changed Man
15) Sweet Child O' Mine
16) Allison Wonderland
17) Lucky in Love
18) S.O.S.
19) Knowing Her
20) The Darkness Is Light Enough
21) Death Takes a Policy
22) Twice Upon a Time

Якість:
Відео:
кодек:
розмір кадру: 1280 х 720
бітрейт: ~4300 кб/с

Аудіо # 1:
мова: українська
переклад: багатоголосий закадровий | Сонце*
кодек: 2.0
бітрейт: 192 кб/с
примітка 1: 6-та серія у озвученні від Індиго TV
примітка 2: На жаль, якість звуку поганенька. Дуже схоже, що озвучення частково відновлювали з касет чи ще щось. І маю одразу заявити, що луна англійської, яку подекуди чутно - це не криві руки релізера, так транслює канал.

Аудіо # 2:
мова: англійська
переклад: оригінал
кодек: 5.1
бітрейт: 448 кб/с

Джерело озвучення:
Info
General
Unique ID : 13472260117146590657022529249338065296 (0xA22A9B4FB6F0A8EC92776D8263E0190)
Complete name : E:\Support\Medium (Season 2) [, 720p, Ukr, Eng]\Medium. S02E01. When Push Comes to Shove (Part 2).
Format :
Format version : Version 4 / Version 2
File size : 1.39 GiB
Duration : 41 min 14 s
Overall bit rate : 4 837 kb/s
Encoded date : UTC 2018-02-05 20:00:20
Writing application : v20.0.0 ('I Am The Sun') 64-bit
Writing library : libebml v1.3.5 + v1.4.8

Video
ID : 1
Format : AVC
Format/Info : Advanced Video Codec
Format profile : [email protected]
Format settings, CABAC : No
Format settings, ReFrames : 2 frames
Format settings, GOP : N=1
Codec ID : V_MPEG4/ISO/AVC
Duration : 41 min 14 s
Bit rate : 4 195 kb/s
Width : 1 280 pixels
Height : 720 pixels
Display aspect ratio : 16:9
Frame rate mode : Constant
Frame rate : 25.000 FPS
Color space : YUV
Chroma subsampling : 4:2:0
Bit depth : 8 bits
Scan type : Progressive
Bits/(Pixel*Frame) : 0.182
Stream size : 1.21 GiB (87%)
Default : Yes
Forced : No
Color range : Limited
Color primaries : BT.709
Transfer characteristics : BT.709
Matrix coefficients : BT.709

Audio #1
ID : 2
Format : AC-3
Format/Info : Audio Coding 3
Format settings, Endianness : Big
Codec ID : A_AC3
Duration : 41 min 14 s
Bit rate mode : Constant
Bit rate : 192 kb/s
Channel(s) : 2 channels
Channel positions : Front: L R
Sampling rate : 48.0 kHz
Frame rate : 31.250 FPS (1536 spf)
Bit depth : 16 bits
Compression mode : Lossy
Stream size : 56.6 MiB (4%)
Title : Сонце
Language : Ukrainian
Service kind : Complete Main
Default : Yes
Forced : No

Audio #2
ID : 3
Format : AC-3
Format/Info : Audio Coding 3
Format settings, Endianness : Big
Codec ID : A_AC3
Duration : 41 min 14 s
Bit rate mode : Constant
Bit rate : 448 kb/s
Channel(s) : 6 channels
Channel positions : Front: L C R, Side: L R, LFE
Sampling rate : 48.0 kHz
Frame rate : 31.250 FPS (1536 spf)
Bit depth : 16 bits
Compression mode : Lossy
Stream size : 132 MiB (9%)
Language : English
Service kind : Complete Main
Default : No
Forced : No
Скріншоти
Джерело: &
Особиста оцінка: 8 - мені сподобалося





Срібний реліз (на рейтинг впливає 50% завантаженого)
 Трекер:    Зареєстрований   

Завантажити / скачати серіал українською



відео для новачків



 Зареєстрований:   2019-04-27 21:14
 Розмір:   31.21 GB 
 Оцінка серіалу:   10/10 (Голосів: 2)
   
Anonymous 







2019-04-27 21:18  
Додав 6-ту серію у альтернативному перекладі від Індиго TV - цієї серії бракувало до повного сезону.
Ваш часовий пояс: GMT + 2 Години

Нова тема   Відповісти