Шибайголови / Renegades (2017) Remux 1080p Ukr/Eng | Sub Eng

Нові коментарі

Нова тема   Відповісти
Автор Повідомлення
staf777 
Відео Гуртом - підтримка та поширення
Відео Гуртом - підтримка та поширення


З нами з: 16.11.16
Востаннє: 16.11.19
Повідомлень: 3030

2018-02-10 17:45  
Шибайголови / Renegades (2017) Remux 1080p Ukr/Eng | Sub Eng


Шибайголови / Renegades (2017) Remux 1080p Ukr/Eng | Sub Eng


Жанр: бойовик, військовий, трилер
Країна: Франція, Німеччина



Кінокомпанія: EuropaCorp, Canal+, Belga Productions, CB Films
Режисер: Стівен Квейл
Актори: Дж. К. Сіммонс, Салліван Степлтон, Юен Бремнер, Клеменс Шик, Сільвія Гукс, Дімітрі Леонідас, Чарлі Б'юлі, Діармейд Муртаг, Джошуа Генрі, Славко Собін

Сюжет:
В одному з озер постраждалої від війни Боснії команда спецзагону ВМС «Морські котики» знаходить скарби, і тепер просто необхідно розгадати таємницю, пов'язану з цією підводною знахідкою.


Тривалість: 01:45:56
Якість: Remux 1080p [з італійського блурея]

Відео:
кодек:
розмір кадру: 1920x1080
бітрейт: 33,1 Mб/с

Аудіо # 1:
мова: українська
переклад: професійний дубльований | студія ААА-sound
кодек: 2.0 [стерео]
бітрейт: 192 кб/с
Інформація про дубляж
Переклад: Юлія Когут
Режисер дубляжу: Олександр Єфімов
Ролі дублювали: Дмитро Гаврилов, Катерина Буцька, Андрій Мостренко, Павло Скороходько, Дмитро Сова, Іван Розін, Дмитро Завадський, Михайло Кришталь, Юлія Перенчук, Андрій Альохін, Юрій Ребрик, Ярослав Чорненький, Кирило Нікітенко та інші.

Фільм дубльовано студією ААА-sound у 2017 році на замовлення компанії Кіноманія.
Аудіо # 2:
мова: англійська
переклад: оригінал
кодек: -HD MA 5.1
бітрейт: 2556 кб/с

Субтитри :
мова: італійська (форсовані на німецьку та хорватську мови)
тип: жорсткі (вбудовані)

Субтитри (Forced)# 1:
мова: українська
тип: програмні (м'які)
формат: *.srt

Субтитри # 2:
мова: англійська
тип: програмні (м'які)
формат: *.srt




Info
Код:

General
Unique ID                                : 227379164163852359898862314637124477239 (0xAB0FA25454C2D5749B470BF6E994A137)
Complete name                            : K:\Майбутні релізи\Renegades (2017) Remux 1080p [Ukr][Eng][Sub Eng][Hurtom].
Format                                   :
Format version                           : Version 4 / Version 2
File size                                : 26.5 GiB
Duration                                 : 1 h 45 min
Overall bit rate                         : 35.8 Mb/s
Movie name                               : Renegades (2017) Remux 1080p [Ukr][Eng][Sub Eng][Hurtom]
Encoded date                             : UTC 2018-02-10 16:20:53
Writing application                      : v9.8.0 ('Kuglblids') 64bit
Writing library                          : libebml v1.3.4 + v1.4.5
Cover                                    : Yes
Attachments                              : cover

Video
ID                                       : 1
Format                                   : AVC
Format/Info                              : Advanced Video Codec
Format profile                           : [email protected]
Format settings, CABAC                   : Yes
Format settings, ReFrames                : 4 frames
Codec ID                                 : V_MPEG4/ISO/AVC
Duration                                 : 1 h 45 min
Bit rate mode                            : Constant
Bit rate                                 : 33.1 Mb/s
Nominal bit rate                         : 35.0 Mb/s
Width                                    : 1 920 pixels
Height                                   : 1 080 pixels
Display aspect ratio                     : 16:9
Frame rate mode                          : Constant
Frame rate                               : 24.000 FPS
Color space                              : YUV
Chroma subsampling                       : 4:2:0
Bit depth                                : 8 bits
Scan type                                : Progressive
Bits/(Pixel*Frame)                       : 0.664
Stream size                              : 24.5 GiB (92%)
Language                                 : Italian
Default                                  : Yes
Forced                                   : No

Audio #1
ID                                       : 2
Format                                   : AC-3
Format/Info                              : Audio Coding 3
Mode extension                           : CM (complete main)
Format settings, Endianness              : Big
Codec ID                                 : A_AC3
Duration                                 : 1 h 45 min
Bit rate mode                            : Constant
Bit rate                                 : 192 kb/s
Channel(s)                               : 2 channels
Channel positions                        : Front: L R
Sampling rate                            : 48.0 kHz
Frame rate                               : 31.250 FPS (1536 spf)
Bit depth                                : 16 bits
Compression mode                         : Lossy
Stream size                              : 145 MiB (1%)
Title                                    : 2.0 @ 192 kbps
Language                                 : Ukrainian
Default                                  : Yes
Forced                                   : Yes

Audio #2
ID                                       : 3
Format                                   :
Format/Info                              : Digital Theater Systems
Format profile                           : MA / Core
Mode                                     : 16
Format settings, Endianness              : Big
Codec ID                                 : A_DTS
Duration                                 : 1 h 45 min
Bit rate mode                            : Variable / Constant
Bit rate                                 : 2 556 kb/s / 1 509 kb/s
Channel(s)                               : 6 channels
Channel positions                        : Front: L C R, Side: L R, LFE
Sampling rate                            : 48.0 kHz
Frame rate                               : 93.750 FPS (512 spf)
Bit depth                                : 24 bits
Compression mode                         : Lossless / Lossy
Stream size                              : 1.89 GiB (7%)
Title                                    : Original
Language                                 : English
Default                                  : No
Forced                                   : No

Text #1
ID                                       : 4
Format                                   : UTF-8
Codec ID                                 : S_TEXT/UTF8
Codec ID/Info                            : UTF-8 Plain Text
Duration                                 : 1 h 32 min
Bit rate                                 : 0 b/s
Count of elements                        : 6
Stream size                              : 302 Bytes (0%)
Title                                    : Forced
Language                                 : Ukrainian
Default                                  : Yes
Forced                                   : Yes

Text #2
ID                                       : 5
Format                                   : UTF-8
Codec ID                                 : S_TEXT/UTF8
Codec ID/Info                            : UTF-8 Plain Text
Duration                                 : 1 h 34 min
Bit rate                                 : 46 b/s
Count of elements                        : 878
Stream size                              : 32.1 KiB (0%)
Title                                    : Full
Language                                 : English
Default                                  : No
Forced                                   : No

Джерело: & &
Синхронізація - Electroz, українські форсовані субтитри - igor911.
Особиста оцінка: 0 - не дивився


Золотий реліз (завантажене не впливає на рейтинг)
 Трекер:    Зареєстрований   

Завантажити / скачати фільм українською



відео для новачків



 Зареєстрований:   2018-03-31 14:37
 Розмір:   26.5 GB 
 Оцінка фільму:   7.2/10 (Голосів: 15)
   
Інші релізи
   Шибайголови / Renegades (2017) 1080p Ukr/Eng | Sub Eng 11FrYkT  2 / 0   9.77 GB   2018-03-31 14:43 
   Шибайголови / Renegades (2017) AVC Ukr/Eng | Sub Eng 11FrYkT  4 / 0   1.73 GB   2018-03-30 20:40 
   Шибайголови / Renegades (2017) 720p Ukr/Eng | Sub Eng igor911  4 / 0   4.05 GB   2018-03-30 19:15 
   Шибайголови / Renegades (2017) Ukr/Eng uafilm.tv  1 / 0   1.46 GB   2018-03-24 13:37 
   Шибайголови / Renegades (2017) Covenant  7 / 0   1.54 GB   2018-01-07 13:08 
bot 
робот


З нами з: 30.09.07
Востаннє: 26.05.05
Повідомлень: 22475

2018-02-10 19:24  
Тему перенесено з Анонси релізів до форуму Фільми в HD


staf777

Oleksa9 
VIP


З нами з: 17.05.12
Востаннє: 16.11.19
Повідомлень: 386

2018-02-17 07:19  
Ну, принаймні не даремно витрачений час. Ще трохи відстрілювань поціновувачів ворожої мови це одразу так!
Uberwinder 
VIP


З нами з: 18.11.16
Востаннє: 16.11.19
Повідомлень: 278

2018-03-21 23:01  
Досить непоганий фільм, при тому, що рейтинг низький.
igor911 
Модератор відео


З нами з: 18.01.08
Востаннє: 16.11.19
Повідомлень: 13657

2018-03-31 14:48  
Реліз оновлено - замінено звук на ліцензійний.
Ваш часовий пояс: GMT + 2 Години

Нова тема   Відповісти