Мистецтво кохання. Історія Міхаліни Віслоцької / Sztuka kochania. Historia Michaliny Wislockiej / The Art of Loving. Story of Michalina Wislocka (2017) 720p Pol | sub Ukr

Нові коментарі

Нова тема   Відповісти
Автор Повідомлення
ivan vyrvyvuho 
VIP


З нами з: 19.08.12
Востаннє: 13.08.20
Повідомлень: 1158

2018-02-10 11:02  
Мистецтво кохання. Історія Міхаліни Віслоцької / Sztuka kochania. Historia Michaliny Wislockiej / The Art of Loving. Story of Michalina Wislocka (2017) 720p Pol | sub Ukr

Мистецтво кохання. Історія Міхаліни Віслоцької / Sztuka kochania. Historia Michaliny Wislockiej / The Art of Loving. Story of Michalina Wislocka (2017) 720p Pol | sub Ukr


Жанр: біографічний, драма
Країна: Польща



Кінокомпанія: Watchout Productions, Agora S.A., Orange S.A., TVN S.A.
Режисер: Марія Садовська / Maria Sadowska
Актори: Маґдалена Бочарська / Magdalena Boczarska, Ерик Любос / Eryk Lubos, Юстина Васілевська / Justyna Wasilewska, Пйотр Адамчик / Piotr Adamczyk, Ясміна Поляк / Jaśmina Polak, Борис Шиц / Borys Szyc, Кароліна Ґрушка / Karolina Gruszka, Войцех Мецвалдовський / Wojciech Mecwaldowski, Данута Стенка / Danuta Stenka, Катажина Цинке / Katarzyna Cynke, Аркадіуш Якубік / Arkadiusz Jakubik, Артур Барцісь / Artur Barciś та інші.

Сюжет:
Історія про відому лікарку та авторку найпопулярнішого в Польщі порадника про кохання. Долю Міхаліни Віслоцької (1921-2005) простежуємо на трьох різних етапах її життя, в результаті чого було написано й видано „Мистецтво кохання”. Знана гінеколог посвятила роки на змагання з консервативними звичаями та боротьбу із бездушною цензурою. Розповідь про створення „Мистецтва кохання” Міхаліни Віслоцької – це історія сексуальної революції в часи ПНР.


Тривалість: 02:00:23
Якість:
Відео:
кодек:
розмір кадру: 1280 х 536
бітрейт: 3000 кб/с

Аудіо:
мова: польська, німецька
переклад: оригінал
кодек: 5.1
бітрейт: 640 кб/с

Субтитри: повні, навіть на монолог у кінцевих титрах
мова: українська
тип: програмні (м'які)
формат: *.srt
переклад: з польської ivan vyrvyvuho

Субтитри:
мова: польська на репліки німецькою
тип: вбудовані (жорсткі)
Скріншоти









Звіт про файл
General
Unique ID : 233547477372978680583807581572293610106 (0xAFB39BA699BAE02AB988999C47724A7A)
Complete name : D:\тор\Sztuka kochania.Historia Michaliny Wislockiej (2017) [Pol,Sub Ukr] 720p.
Format :
Format version : Version 2
File size : 3.06 GiB
Duration : 2 h 0 min
Overall bit rate mode : Variable
Overall bit rate : 3 641 kb/s
Encoded date : UTC 2018-02-10 06:53:10
Writing application : v5.6.0 ('Kenya Kane') built on May 27 2012 16:44:04
Writing library : libebml v1.2.3 + v1.3.0

Video
ID : 1
Format : AVC
Format/Info : Advanced Video Codec
Format profile : [email protected]
Format settings, CABAC : Yes
Format settings, ReFrames : 4 frames
Codec ID : V_MPEG4/ISO/AVC
Duration : 2 h 0 min
Bit rate mode : Variable
Bit rate : 3 000 kb/s
Maximum bit rate : 40.0 Mb/s
Width : 1 280 pixels
Height : 536 pixels
Display aspect ratio : 2.40:1
Frame rate mode : Constant
Frame rate : 24.000 FPS
Color space : YUV
Chroma subsampling : 4:2:0
Bit depth : 8 bits
Scan type : Progressive
Bits/(Pixel*Frame) : 0.182
Stream size : 2.46 GiB (80%)
Writing library : core 142 r2431 ac76440
Encoding settings : cabac=1 / ref=5 / deblock=1:-3:-3 / analyse=0x3:0x113 / me=umh / subme=8 / psy=1 / psy_rd=1.05:0.00 / mixed_ref=1 / me_range=16 / chroma_me=1 / trellis=1 / 8x8dct=1 / cqm=0 / deadzone=21,11 / fast_pskip=1 / chroma_qp_offset=-2 / threads=6 / lookahead_threads=1 / sliced_threads=0 / slices=4 / nr=0 / decimate=1 / interlaced=0 / bluray_compat=1 / constrained_intra=0 / bframes=3 / b_pyramid=1 / b_adapt=2 / b_bias=0 / direct=3 / weightb=1 / open_gop=1 / weightp=1 / keyint=24 / keyint_min=1 / scenecut=40 / intra_refresh=0 / rc_lookahead=24 / rc=2pass / mbtree=1 / bitrate=3000 / ratetol=1.0 / qcomp=0.60 / qpmin=10 / qpmax=51 / qpstep=4 / cplxblur=20.0 / qblur=0.5 / vbv_maxrate=40000 / vbv_bufsize=30000 / nal_hrd=vbr / filler=0 / ip_ratio=1.40 / aq=1:0.90
Language : English
Default : Yes
Forced : No

Audio
ID : 2
Format : AC-3
Format/Info : Audio Coding 3
Mode extension : CM (complete main)
Format settings, Endianness : Big
Codec ID : A_AC3
Duration : 2 h 0 min
Bit rate mode : Constant
Bit rate : 640 kb/s
Channel(s) : 6 channels
Channel positions : Front: L C R, Side: L R, LFE
Sampling rate : 48.0 kHz
Frame rate : 31.250 FPS (1536 spf)
Bit depth : 16 bits
Compression mode : Lossy
Stream size : 551 MiB (18%)
Language : English
Default : Yes
Forced : No

Text
ID : 3
Format : UTF-8
Codec ID : S_TEXT/UTF8
Codec ID/Info : UTF-8 Plain Text
Title : Ukr
Language : Ukrainian
Default : Yes
Forced : Yes
Джерело:
Особиста оцінка: 9 - мені сподобалося


Золотий реліз (завантажене не впливає на рейтинг)
 Трекер:    Зареєстрований   

Завантажити / скачати фільм українською



відео для новачків



 Зареєстрований:   2018-02-10 11:02
 Розмір:   3.06 GB 
 Оцінка фільму:   8.8/10 (Голосів: 16)
   
ikmor 
Новенький


З нами з: 14.01.13
Востаннє: 07.07.20
Повідомлень: 2

2020-01-14 17:59  
Гарний фільм. Сучасному українському кіно до нього дуже далеко
kostyalive 
Новенький


З нами з: 20.11.19
Востаннє: 16.03.20
Повідомлень: 18

2020-01-15 18:30  
Хвільма дивна. Гри акторів нема, є совок і є тітьки. Порівняти з сучасно-українською або будьчим складно.
Вадька 
Частий відвідувач


З нами з: 02.07.11
Востаннє: 13.08.20
Повідомлень: 42

2020-02-03 03:20  
Фемінізм присутній?
Ваш часовий пояс: GMT + 2 Години

Нова тема   Відповісти