Джузеппе Москаті: Любов, що зцілює [Частина 1-2] / Giuseppe Moscati: L'amore che guarisce [Part 1-2] (2007) Ukr/Ita | Sub Ukr

Нові коментарі

Нова тема   Відповісти
Автор Повідомлення
Mennsh 
Новенький


З нами з: 11.09.16
Востаннє: 07.03.20
Повідомлень: 21

2018-02-09 02:19  
Джузеппе Москаті: Любов, що зцілює [Частина 1-2]


Giuseppe Moscati: L'amore che guarisce [Part 1-2] (2007) Ukr/Ita | Sub Ukr

Джузеппе Москаті: Любов, що зцілює [Частина 1-2] / Giuseppe Moscati: L'amore che guarisce [Part 1-2] (2007) Ukr/Ita | Sub Ukr]


Жанр: драма, біографічний
Країна: Італія



Кінокомпанія: Rai Radiotelevisione Italiana
Режисер: Джакомо Кампіотті
Актори: Беппе Фіорелло, Касія Смутняк, Етторе Бассі, Доміціанно Арканджелі, Карміне Борріно, Паола Кассела, Джорджіо Коланджелі, Марко Ґамбіно, Емануелла Грімальда, Антонелла Стефануччі, Даріо Таконелі, Джузепе Дзено

Сюжет:
Історія святого Джузеппе Москаті - неаполітанського лікаря і великого гуманіста. Москаті все своє життя власним прикладом доводив, що найбільша сила - любов. Він доводив це поєднуючи блискучі лікарські здібності і любов до ближнього. Москаті стверджував, що навіть звичайне співчуття може зцілити хворого швидше, ніж збайдужіле виконання своїх обов'язків лікарем, і навчав цього своїх учнів.


Реліз підготовлено не для комерційного використання.

Тривалість: 01:27:54 + 01:28:43
Якість:
Відео:
кодек:
розмір кадру: 720 х 408
бітрейт: 2155 кб/с
контейнер:

Аудіо 1:
мова: українська
переклад: багатоголосий закадровий
кодек: MP3 2.0
бітрейт: 256 кб/с

Аудіо 2:
мова: італійська
переклад: оригінал
кодек: 2.0
бітрейт: 192 кб/с

Субтитри:
мова: українська
тип: програмні (м'які)
формат: *.srt

Джерело озвучення:
Info

General
Unique ID : 191618271888642598379878932391846757877 (0x90285636B40FFCDCB2D10DC9A26845F5)
Complete name : Giuseppe Moscati Lamore che guarisce (2007) \Dzhuzeppe Moskatі. Lyubov, scho stsіlyuє. CHst. І (Giuseppe Moscati. L'amore che guarisce I(2007) [Ita, Sub Ukr] ).
Format :
Format version : Version 4
File size : 1.60 GiB
Duration : 1 h 27 min
Overall bit rate : 2 604 kb/s
Encoded date : UTC 2019-11-30 12:40:06
Writing application : v15.0.0 ('Duel with the Devil') 32-bit
Writing library : libebml v1.3.5 + v1.4.5
Cover : Yes
Attachments : cover.jpg

Video
ID : 1
Format : MPEG-4 Visual
Format profile : Advanced [email protected]
Format settings : BVOP2
Format settings, BVOP : 2
Format settings, QPel : No
Format settings, GMC : No warppoints
Format settings, Matrix : Default (H.263)
Muxing mode : Packed bitstream
Codec ID : V_MS/VFW/FOURCC /
Codec ID/Hint :
Duration : 1 h 27 min
Bit rate : 2 155 kb/s
Width : 720 pixels
Height : 408 pixels
Display aspect ratio : 16:9
Frame rate mode : Constant
Frame rate : 25.000 FPS
Color space : YUV
Chroma subsampling : 4:2:0
Bit depth : 8 bits
Scan type : Progressive
Compression mode : Lossy
Bits/(Pixel*Frame) : 0.293
Stream size : 1.32 GiB (83%)
Writing library : 1.2.1 (UTC 2008-12-04)
Default : Yes
Forced : No

Audio #1
ID : 2
Format : MPEG Audio
Format version : Version 1
Format profile : Layer 3
Format settings : Joint stereo
Codec ID : A_MPEG/L3
Codec ID/Hint : MP3
Duration : 1 h 27 min
Bit rate mode : Constant
Bit rate : 256 kb/s
Channel(s) : 2 channels
Sampling rate : 48.0 kHz
Frame rate : 41.667 FPS (1152 SPF)
Compression mode : Lossy
Stream size : 161 MiB (10%)
Title : українська
Writing library : LAME3.99.5
Language : Ukrainian
Default : Yes
Forced : Yes

Audio #2
ID : 3
Format : AC-3
Format/Info : Audio Coding 3
Commercial name : Dolby Digital
Codec ID : A_AC3
Duration : 1 h 27 min
Bit rate mode : Constant
Bit rate : 192 kb/s
Channel(s) : 2 channels
Channel layout : L R
Sampling rate : 48.0 kHz
Frame rate : 31.250 FPS (1536 SPF)
Bit depth : 16 bits
Compression mode : Lossy
Stream size : 121 MiB (7%)
Language : Italian
Service kind : Complete Main
Default : No
Forced : No

Text
ID : 4
Format : UTF-8
Codec ID : S_TEXT/UTF8
Codec ID/Info : UTF-8 Plain Text
Duration : 1 h 26 min
Bit rate : 71 b/s
Count of elements : 879
Stream size : 45.5 KiB (0%)
Title : повні Людмила Швець
Default : No
Forced : No
Скріншоти
Джерело:
Особиста оцінка: 10 - без зайвих вагань рекомендую всім!

11.12.2019 реліз оновлено - Додано 2-гу частину. До 1-ої частини додано оригінальну звукову доріжку та українські субтитри.


Подяка за допомогу в оформленні релізу: neo3703


Золотий реліз (завантажене не впливає на рейтинг)
 Трекер:    Зареєстрований   

Завантажити / скачати фільм українською



відео для новачків



 Зареєстрований:   2019-12-11 00:35
 Розмір:   3.17 GB 
 Оцінка фільму:   9.9/10 (Голосів: 17)
 Додано 2-гу частину
   
rer007 
Новенький


З нами з: 24.01.10
Востаннє: 23.03.20
Повідомлень: 3

2018-02-09 13:00  
Дякую, вам за чудову роботу, коли чекати другу частину?
allatoll 
Новенький


З нами з: 23.09.13
Востаннє: 27.03.20
Повідомлень: 23

2018-02-10 22:38  
Нарешті в українському перекладі. Фільм рекомендую усім.
Ruthenum 
Новенький


З нами з: 15.08.17
Востаннє: 26.03.20
Повідомлень: 9

2018-02-11 15:01  
Фільм і історія людини справді варта уваги
Mennsh 
Новенький


З нами з: 11.09.16
Востаннє: 07.03.20
Повідомлень: 21

2018-02-12 04:37  
rer007
Будь ласка, приємно що вам сподобалось)
а на рахунок другої частини... Планую взятись за неї як тільки руки дійдуть) тому варто чекати десь за місяць, але це не точно)

molfa 
Новенький


З нами з: 06.03.12
Востаннє: 27.03.20
Повідомлень: 7

2018-05-16 22:07  
то що там з другою частиною?
forcer76 
Новенький


З нами з: 17.02.11
Востаннє: 27.03.20
Повідомлень: 16

2018-05-18 21:42  
Фільм надзвичайно душевний і сильний...про справжню жертовність. Авторам дяк!
coldice 
Поважний учасник


З нами з: 20.03.10
Востаннє: 27.03.20
Повідомлень: 150

2018-05-19 10:48  
Чудово! Дякую Happy нарешті цей прекрасний фільм озвучено рідною мовою! Чекатиму другої частини!
diz.dim 
Новенький


З нами з: 21.09.09
Востаннє: 27.03.20
Повідомлень: 3

2018-10-11 15:22  
Дуже хороший фільм! Заставляє задуматись над життям. Вже 7 місяців чекаю на 2-у частину...
putinhuilo_ 
Новенький


З нами з: 08.03.18
Востаннє: 20.03.20
Повідомлень: 10

2018-12-03 00:43  
Чекаємо!!!
postuluy 
Новенький


З нами з: 13.01.13
Востаннє: 27.03.20
Повідомлень: 15

2019-06-02 20:41  
Вітаю. Таки буде озвучення другої частини?
karakyl132 
Новенький


З нами з: 05.01.18
Востаннє: 31.10.19
Повідомлень: 1

2019-10-31 21:20  
Дуже крутий фільм!!!
Перекладіть будь ласка другу частину. Дякую!!!

igor911 
Модератор відео


З нами з: 18.01.08
Востаннє: 28.03.20
Повідомлень: 14306

2019-12-11 00:49  
Mennsh написано:
11.12.2019 реліз оновлено - Додано 2-гу частину

Додайте в опис тривалість другої частини(наприклад, "01:27:53 + ...")

Mennsh 
Новенький


З нами з: 11.09.16
Востаннє: 07.03.20
Повідомлень: 21

2019-12-11 03:24  
igor911 Додано
Electroz 
Відео Гуртом - підтримка та поширення
Відео Гуртом - підтримка та поширення


З нами з: 18.09.14
Востаннє: 28.03.20
Повідомлень: 3801

2019-12-11 12:01  
Mennsh написано:
кодек: MP3 2.0

Чому звук конвертовано в mp3?

Ваш часовий пояс: GMT + 2 Години

Нова тема   Відповісти