Майстер тай-цзи / Man of Tai Chi (2013) Remux 1080p Ukr/Eng | Sub Ukr/Eng

Нові коментарі

Нова тема   Відповісти
Автор Повідомлення
IronBee 
Поважний учасник


З нами з: 08.02.10
Востаннє: 22.09.20
Повідомлень: 231

2018-02-08 19:36  
Майстер тай-цзи / Man of Tai Chi (2013) Remux 1080p Ukr/Eng | Sub Ukr/Eng

Майстер тай-цзи / Man of Tai Chi (2013) Remux 1080p Ukr/Eng | Sub Ukr/Eng


Жанр: бойовик, драма, екшн
Країна: США, Китай, Гонконг



Кінокомпанія: China Film Group, Company Films, Dalian Wanda Group
Режисер: Кіану Рівз / Keanu Reeves
Актори: Тайґер Чен / Tiger Chen, Кіану Рівз / Keanu Reeves, Карен Мок / Karen Mok, Саймон Ям / Simon Yam, Майкл Чан / Michael Chan, Цин Є / Qing Ye, Ю Хай / Yu Hai та інші

Сюжет:
Пекін. Амбіційний юнак Чень Лінь - Ху на прізвисько «Тигр» підробляє скромним кур'єром, але після роботи він перетворюється на молоду зірку бойових мистецтв, поступово відточуючи свої навички, дотримуючись традицій тайцзи Лін Кун. Навчившись розміреним і мирним рухам з тайцзи, він пристосував їх для бійцівських змагань.

Донака Марк, ховаючись від гонконгської поліції, потрапляє в інший столичний мегаполіс, де панує плутанина і хаос, і відкриває там підпільний бійцівський клуб, в якому реальні гроші можна заробити, перемагаючи супротивників у поєдинках без правил, які транслюються в прямому ефірі багатим кліентам.

Підшукуючи нову «зірку», Донака намагається принадити Тигра обіцянкою легкого заробітку. Входження у цей світ виявляє найтемнішу сторону Чень Лінь - Ху, але йому необхідні гроші. Його навички допомагають йому на рингу, та чи зможе він, борючись, зберегти в собі чистоту і добропорядність?


Тривалість: 01:45:09
Якість: Remux
Відео:
кодек:
розмір кадру: 1920 х 1080
бітрейт: 34,8 Mб/с

Аудіо # 1:
мова: українська
переклад: багатоголосий закадровий | НЛО.TV
кодек: 2.0
бітрейт: 192 кб/с

Аудіо # 2:
мова: англійська
переклад: оригінал
кодек: -HD MA 5.1
бітрейт: 3622 кб/с

Субтитри # 1:
мова: українська (повні)
тип: програмні (м'які)
формат: *.srt

Субтитри # 2-3:
мова: англійська (повні, SDH)
тип: програмні (м'які)
формат: *.srt
Info
General
Unique ID : 16305259615215672082658565971041113703 (0xC44475DC23E3E74107CA9033E18D667)
Complete name : D:\Films\Майстер тай-цзи Man of Tai Chi (2013) Remux 1080p UkrEng sub UkrEng[Hurtom].
Format :
Format version : Version 4 / Version 2
File size : 28.4 GiB
Duration : 1 h 45 min
Overall bit rate mode : Variable
Overall bit rate : 38.6 Mb/s
Movie name : Man of Tai Chi (2013) / Lelya_K for NNM-Club
Encoded date : UTC 2018-02-07 21:09:31
Writing application : v20.0.0 ('I Am The Sun') 64-bit
Writing library : libebml v1.3.5 + v1.4.8
Attachments : folderbkp.jpg

Video
ID : 1
Format : AVC
Format/Info : Advanced Video Codec
Format profile : [email protected]
Format settings : CABAC / 2 Ref Frames
Format settings, CABAC : Yes
Format settings, ReFrames : 2 frames
Codec ID : V_MPEG4/ISO/AVC
Duration : 1 h 45 min
Bit rate mode : Variable
Bit rate : 34.8 Mb/s
Width : 1 920 pixels
Height : 1 080 pixels
Display aspect ratio : 16:9
Frame rate mode : Constant
Frame rate : 23.976 (24000/1001) FPS
Color space : YUV
Chroma subsampling : 4:2:0
Bit depth : 8 bits
Scan type : Progressive
Bits/(Pixel*Frame) : 0.700
Stream size : 25.6 GiB (90%)
Language : English
Default : Yes
Forced : No

Audio #1
ID : 2
Format : AC-3
Format/Info : Audio Coding 3
Codec ID : A_AC3
Duration : 1 h 45 min
Bit rate mode : Constant
Bit rate : 192 kb/s
Channel(s) : 2 channels
Channel positions : Front: L R
Sampling rate : 48.0 kHz
Frame rate : 31.250 FPS (1536 SPF)
Bit depth : 16 bits
Compression mode : Lossy
Delay relative to video : 450 ms
Stream size : 144 MiB (0%)
Language : Ukrainian
Service kind : Complete Main
Default : Yes
Forced : No

Audio #2
ID : 3
Format :
Format/Info : Digital Theater Systems
Format profile : MA / Core
Codec ID : A_DTS
Duration : 1 h 45 min
Bit rate mode : Variable / Constant
Bit rate : 3 622 kb/s / 1 509 kb/s
Channel(s) : 6 channels
Channel positions : Front: L C R, Side: L R, LFE
Sampling rate : 48.0 kHz
Frame rate : 93.750 FPS (512 SPF)
Bit depth : 24 bits
Compression mode : Lossless / Lossy
Stream size : 2.66 GiB (9%)
Title : -HD MA 5.1 / 3622 kbps / Original
Language : English
Default : No
Forced : No

Text #1
ID : 4
Format : UTF-8
Codec ID : S_TEXT/UTF8
Codec ID/Info : UTF-8 Plain Text
Duration : 1 h 43 min
Bit rate : 40 b/s
Count of elements : 750
Stream size : 30.4 KiB (0%)
Title : Full
Language : Ukrainian
Default : No
Forced : No

Text #2
ID : 5
Format : UTF-8
Codec ID : S_TEXT/UTF8
Codec ID/Info : UTF-8 Plain Text
Duration : 1 h 42 min
Bit rate : 17 b/s
Count of elements : 451
Stream size : 13.3 KiB (0%)
Title : Full
Language : English
Default : No
Forced : No

Text #3
ID : 6
Format : UTF-8
Codec ID : S_TEXT/UTF8
Codec ID/Info : UTF-8 Plain Text
Duration : 1 h 43 min
Bit rate : 31 b/s
Count of elements : 932
Stream size : 24.1 KiB (0%)
Title : SDH
Language : English
Default : No
Forced : No

Menu
00:00:00.000 : en:Chapter 1
00:05:12.979 : en:Chapter 2
00:09:11.175 : en:Chapter 3
00:15:27.384 : en:Chapter 4
00:19:11.358 : en:Chapter 5
00:25:18.600 : en:Chapter 6
00:29:59.923 : en:Chapter 7
00:35:43.015 : en:Chapter 8
00:39:17.855 : en:Chapter 9
00:46:17.941 : en:Chapter 10
00:54:33.979 : en:Chapter 11
01:00:39.969 : en:Chapter 12
01:05:19.540 : en:Chapter 13
01:10:07.828 : en:Chapter 14
01:15:59.596 : en:Chapter 15
01:20:13.767 : en:Chapter 16
01:25:42.846 : en:Chapter 17
01:30:39.851 : en:Chapter 18
01:35:18.838 : en:Chapter 19
01:37:52.324 : en:Chapter 20
Скріншоти




За запис звуку з ТБ дякуємо пану Bohdan237
За постер дякуємо панам 747 та Тирік'у

Джерело: &
Особиста оцінка: 0 - не дивився


Золотий реліз (завантажене не впливає на рейтинг)
 Трекер:    Зареєстрований   

Завантажити / скачати фільм українською



відео для новачків



 Зареєстрований:   2018-02-08 19:36
 Розмір:   28.36 GB 
 Оцінка фільму:   10/10 (Голосів: 2)
   
Electroz 
Відео Гуртом - підтримка та поширення
Відео Гуртом - підтримка та поширення


З нами з: 18.09.14
Востаннє: 23.09.20
Повідомлень: 4020

2018-02-08 19:56  
IronBee написано:
(НЛО.TV)

Може підказати, як вставити зображення чи ви так спеціально пишете?

IronBee 
Поважний учасник


З нами з: 08.02.10
Востаннє: 22.09.20
Повідомлень: 231

2018-02-08 21:38  
Electroz
Підкажіть)

boroznaya 
Попереджень: 1
Попереджень: 1 


З нами з: 02.11.12
Востаннє: 23.09.20
Повідомлень: 2938

2018-02-08 23:34  
Electroz написано:
Може підказати, як вставити зображення

Мені теж підкажіть! В ПП якщо можна?

Mr Yuran 
Відео Гуртом - команда HD
Відео Гуртом - команда HD


З нами з: 15.11.11
Востаннє: 22.09.20
Повідомлень: 488

2018-02-08 23:55  
IronBee
Зміни назву на Майстер тай-цзи / Man of Tai Chi (2013) Remux 1080p Ukr/Eng | Sub Ukr/Eng, інакше не працюють інші релізи.

igor911 
Модератор відео


З нами з: 18.01.08
Востаннє: 23.09.20
Повідомлень: 15000

2018-02-08 23:59  
виправив
olyx 
Відео Гуртом - підтримка та поширення
Відео Гуртом - підтримка та поширення


З нами з: 26.01.10
Востаннє: 23.09.20
Повідомлень: 273

2018-05-03 17:38  
2 sideru a zawantagutu nemogluvo
Ваш часовий пояс: GMT + 2 Години

Нова тема   Відповісти