Роботи / Robots (2005) 1080p Ukr/Eng | Sub Eng

Нові коментарі

Нова тема   Відповісти
Автор Повідомлення
staf777 
Відео Гуртом - підтримка та поширення
Відео Гуртом - підтримка та поширення


З нами з: 16.11.16
Востаннє: 05.03.21
Повідомлень: 5094

2018-02-08 17:40  
Роботи / Robots (2005) 1080p Ukr/Eng | Sub Eng

Роботи / Robots (2005) 1080p Ukr/Eng | Sub Eng

Альтернативні постери







Жанр: анімація, мелодрама, комедія, музичний, пригодницький, сімейний, фантастика
Країна: США



Кінокомпанія: Twentieth Century Fox Animation, Blue Sky Studios
Режисер: Карлос Салдана / Carlos Saldanha, Кріс Ведж / Chris Wedge
Актори: Юен МакҐреґор / Ewan McGregor, Геллі Беррі / Halle Berry, Джим Бродбент / Jim Broadbent, Мел Брукс / Mel Brooks, Дженніфер Кулідж / Jennifer Coolidge, Пол Джіаматті / Paul Giamatti, Ден Гедайа / Dan Hedaya, Наташа Ліонн / Natasha Lyonne, Стенлі Тучі / Stanley Tucci, Робін Вільямс / Robin Williams, Пола Абдул / Paula Abdul, Джеймс Ерл Джонс / James Earl Jones та інші

Сюжет:
Вперше вам відкриється повністю вигаданий світ, населений виключно роботами. Як і в світі людей у них є своя соціальна ієрархія, свої герої та вигнанці. Молодий геніальний винахідник Родні мріє зробити світ роботів кращим і зустрітися зі своїм кумиром - ґуру винахідників Біґ Ботом. А ще йому дуже подобається одна молоденька робот Каппі. Але на шляху всіх його планів стоїть місцевий олігарх Біг Велд, що очолив корпорацію Біґ Бота і намагається здобути владу над всіма роботами, контролюючи випуск запчастин.


Тривалість: 01:29:47
Якість: 1080p
Відео:
кодек:
розмір кадру: 1920x1040
бітрейт: 12,4 Мб/с

Аудіо # 1: &
мова: українська
переклад: двоголосий закадровий
кодек: 2.0
бітрейт: 192 кб/с

Аудіо # 2:
мова: англійська
переклад: оригінал
кодек: 5.1
бітрейт: 768 кб/с

Субтитри:
мова: англійська
тип: програмні (м'які)
формат: *.srt
Info
General
Unique ID : 245666011720710980826852368053173152175 (0xB8D18D863564FC469A50431A8E6EE9AF)
Complete name : I:\Robots (2005) 1080p [Ukr][Eng] [Sub Eng][Hurtom] .
Format :
Format version : Version 4 / Version 2
File size : 8.40 GiB
Duration : 1 h 29 min
Overall bit rate : 13.4 Mb/s
Movie name : Robots (2005) 1080p [Ukr][Eng] [Sub Eng][Hurtom]
Encoded date : UTC 2018-02-08 14:54:34
Writing application : v9.8.0 ('Kuglblids') 64bit
Writing library : libebml v1.3.4 + v1.4.5

Video
ID : 1
Format : AVC
Format/Info : Advanced Video Codec
Format profile : [email protected]
Format settings, CABAC : Yes
Format settings, ReFrames : 4 frames
Codec ID : V_MPEG4/ISO/AVC
Duration : 1 h 29 min
Bit rate : 12.4 Mb/s
Width : 1 920 pixels
Height : 1 040 pixels
Display aspect ratio : 1.85:1
Frame rate mode : Constant
Frame rate : 23.976 FPS
Color space : YUV
Chroma subsampling : 4:2:0
Bit depth : 8 bits
Scan type : Progressive
Bits/(Pixel*Frame) : 0.260
Stream size : 7.79 GiB (93%)
Title : - 2 passes @ 40% of the original bitrate
Writing library : core 92 r1510 33d382a
Encoding settings : cabac=1 / ref=4 / deblock=1:3:3 / analyse=0x3:0x113 / me=umh / subme=10 / psy=1 / psy_rd=1.00:0.00 / mixed_ref=1 / me_range=64 / chroma_me=1 / trellis=2 / 8x8dct=1 / cqm=0 / deadzone=21,11 / fast_pskip=0 / chroma_qp_offset=-2 / threads=12 / sliced_threads=0 / nr=0 / decimate=1 / interlaced=0 / constrained_intra=0 / bframes=5 / b_pyramid=2 / b_adapt=2 / b_bias=0 / direct=2 / wpredb=1 / wpredp=2 / keyint=250 / keyint_min=25 / scenecut=40 / intra_refresh=0 / rc_lookahead=40 / rc=2pass / mbtree=1 / bitrate=12425 / ratetol=1.0 / qcomp=0.80 / qpmin=10 / qpmax=51 / qpstep=4 / cplxblur=20.0 / qblur=0.5 / vbv_maxrate=38000 / vbv_bufsize=30000 / ip_ratio=1.40 / aq=1:1.00 / nal_hrd=none
Language : English
Default : Yes
Forced : No

Audio #1
ID : 2
Format : AC-3
Format/Info : Audio Coding 3
Mode extension : CM (complete main)
Format settings, Endianness : Big
Codec ID : A_AC3
Duration : 1 h 29 min
Bit rate mode : Constant
Bit rate : 192 kb/s
Channel(s) : 2 channels
Channel positions : Front: L R
Sampling rate : 48.0 kHz
Frame rate : 31.250 FPS (1536 spf)
Bit depth : 16 bits
Compression mode : Lossy
Stream size : 123 MiB (1%)
Title : [UA-DV0]
Language : Ukrainian
Default : Yes
Forced : Yes

Audio #2
ID : 3
Format :
Format/Info : Digital Theater Systems
Mode : 16
Format settings, Endianness : Big
Codec ID : A_DTS
Duration : 1 h 29 min
Bit rate mode : Constant
Bit rate : 768 kb/s
Channel(s) : 6 channels
Channel positions : Front: L C R, Side: L R, LFE
Sampling rate : 48.0 kHz
Frame rate : 93.750 FPS (512 spf)
Bit depth : 24 bits
Compression mode : Lossy
Stream size : 493 MiB (6%)
Title : Английский
Language : English
Default : No
Forced : No

Text
ID : 4
Format : UTF-8
Codec ID : S_TEXT/UTF8
Codec ID/Info : UTF-8 Plain Text
Duration : 1 h 22 min
Bit rate : 58 b/s
Count of elements : 1013
Stream size : 35.6 KiB (0%)
Title : Английские
Language : English
Default : No
Forced : No
Скріншоти


українська доріжка - taraskill1 - зведення, xslim, SalCom - запис з ТБ; thefir, Ham_R - постери
Джерело: &
Особиста оцінка: 0 - не дивився


 Трекер:    Зареєстрований   

Завантажити / скачати мультфільм українською



відео для новачків



 Зареєстрований:   2018-02-08 17:40
 Розмір:   8.4 GB 
 Оцінка мультфільму:   9.3/10 (Голосів: 19)
   
Інші релізи
   Роботи / Robots (2005) 1080p H.265 Ukr/Eng | Sub Eng -Star-Lord-  3 / 0   5.18 GB   2020-05-14 15:21 
   Роботи / Robots (2005) AVC Ukr/Eng | Sub Eng staf777  5 / 0   2.18 GB   2018-06-03 15:56 
   Роботи / Robots (2005) Remux 1080p Ukr/Eng | Sub Eng Dr.S  1 / 0   20.32 GB   2018-04-21 15:47 
   Роботи / Robots (2005) 720p Ukr/Eng | Sub Eng/Ger/Spa/Por igor911  3 / 0   4.14 GB   2016-05-29 15:12 
   Роботи / Robots (2005) taraskill1  6 / 0   1.29 GB   2016-05-29 07:30 
voman1991 
Новенький


З нами з: 10.01.15
Востаннє: 27.02.21
Повідомлень: 3

2018-03-11 20:52  
Битий файл
igor911 
Модератор відео


З нами з: 18.01.08
Востаннє: 05.03.21
Повідомлень: 15619

2018-03-11 21:03  
staf777 написано:
Завантажили: [ 77 ]

voman1991 написано:
Битий файл

хтось би ще поскаржився + тебе немає у списку сідів.

EvGaS 
Відео Гуртом - субтитрування
Відео Гуртом - субтитрування


З нами з: 27.02.12
Востаннє: 31.07.19
Повідомлень: 5663

2018-03-15 18:36  
Де в чому незвичайний, але з тих мультів, які варто побачити дитині чи родині.
Наразі у цьому HD розділі поки що єдина вартісна картина за 2018 рік.

Звісно що компграфіка 2005-го року зараз може не вразити спецефектами, проте доволі добре пропрацьовані усілякі дрібниці, а текстури не є мазаниною, як зазвичай бува у 3-д графіки.
Хоча й воно не головне — тут сама по собі історія простенька, але вартісна. А теє — обгортка для кращого сприйняття.

Ну й на майбутнє побажаємо релізерові краще попадати по пробілу, коли знов називатиме файл. Happy

Ваш часовий пояс: GMT + 2 Години

Нова тема   Відповісти