Льодовиковий період: Курс на зіткнення / Ice Age: Collision Course (2016) Remux 1080p Ukr/Eng | Sub Ukr/Eng

Нові коментарі

Нова тема   Відповісти
Автор Повідомлення
staf777 
Відео Гуртом - підтримка та поширення
Відео Гуртом - підтримка та поширення


З нами з: 16.11.16
Востаннє: 01.03.21
Повідомлень: 5070

2018-02-08 11:03  
Льодовиковий період: Курс на зіткнення / Ice Age: Collision Course (2016) Remux 1080p Ukr/Eng | Sub Ukr/Eng

Льодовиковий період: Курс на зіткнення / Ice Age: Collision Course (2016) Remux 1080p Ukr/Eng | Sub Ukr/Eng


Жанр: анімація, комедія, пригоди
Країна: США



Кінокомпанія: Blue Sky Studios, Twentieth Century Fox Animation
Режисер: Майк Трумейєр, Ґален Т. Чу
Актори: Рей Романо, Джон Леґуізамо, Деніс Лірі, Мелісса Рауч, Квін Латіфа, Шонн Вільям Скотт, Джош Пек, Дженніфер Лопез, Саймон Пеґґ, Адам Дівайн

Сюжет:
П'ята частина популярної франшизи про пригоди звірів з доісторичної епохи. Хто б міг подумати, що гонитва невтомної білки Скрата за жолудем може перетворитися на катастрофу планетарного масштабу? Випадкова серія подій призводить до загрози всьому живому на Землі. Сід, Дієґо, Менні та інші змушені відправитися на пошуки безпечного місця. На своєму шляху вони переживуть багато пригод, смішних моментів, а також познайомляться з новими цікавими персонажами.


Тривалість: 01:34:32
Якість: Remux 1080p
Відео:
кодек:
розмір кадру: 1920x1080
бітрейт: 24,4 Mб/с

Аудіо # 1:
мова: українська
переклад: професійний дубльований
кодек: 5.1
бітрейт: 448 кб/с

Аудіо # 2:
мова: англійська
переклад: оригінал
кодек: -HD MA 7.1
бітрейт: 4618 кб/с

Субтитри # 1-2: (Forced, Full)
мова: українська
тип: програмні (м'які)
формат: *.srt

Субтитри # 3:
мова: англійська
тип: програмні (м'які)
формат: *.srt
Info
General
Unique ID : 236139844812608892516102460278458202013 (0xB1A6E13BCD4EB7E5BDC6A9ACF026B79D)
Complete name : I:\Ice Age Collision Course (2016) Remux 1080p [Ukr][Eng][Sub Ukr,Eng][Hurtom].
Format :
Format version : Version 4 / Version 2
File size : 19.5 GiB
Duration : 1 h 34 min
Overall bit rate mode : Variable
Overall bit rate : 29.5 Mb/s
Movie name : Ice Age: Collision Course (2016) Remux 1080p [Ukr][Eng][Sub Ukr,Eng][Hurtom]
Encoded date : UTC 2018-02-08 08:21:16
Writing application : v9.8.0 ('Kuglblids') 64bit
Writing library : libebml v1.3.4 + v1.4.5

Video
ID : 1
Format : AVC
Format/Info : Advanced Video Codec
Format profile : [email protected]
Format settings, CABAC : Yes
Format settings, ReFrames : 4 frames
Codec ID : V_MPEG4/ISO/AVC
Duration : 1 h 34 min
Bit rate mode : Variable
Bit rate : 24.4 Mb/s
Maximum bit rate : 30.0 Mb/s
Width : 1 920 pixels
Height : 1 080 pixels
Display aspect ratio : 16:9
Frame rate mode : Constant
Frame rate : 23.976 (24000/1001) FPS
Color space : YUV
Chroma subsampling : 4:2:0
Bit depth : 8 bits
Scan type : Progressive
Bits/(Pixel*Frame) : 0.491
Stream size : 16.1 GiB (83%)
Title : Ice Age: Collision Course (2016)
Language : English
Default : Yes
Forced : No

Audio #1
ID : 2
Format : AC-3
Format/Info : Audio Coding 3
Mode extension : CM (complete main)
Format settings, Endianness : Big
Codec ID : A_AC3
Duration : 1 h 34 min
Bit rate mode : Constant
Bit rate : 448 kb/s
Channel(s) : 6 channels
Channel positions : Front: L C R, Side: L R, LFE
Sampling rate : 48.0 kHz
Frame rate : 31.250 FPS (1536 spf)
Bit depth : 16 bits
Compression mode : Lossy
Stream size : 303 MiB (2%)
Title : Dub [License] Blu-ray EUR
Language : Ukrainian
Default : Yes
Forced : Yes

Audio #2
ID : 3
Format :
Format/Info : Digital Theater Systems
Format profile : MA / ES Matrix / Core
Mode : 16
Format settings, Endianness : Big
Codec ID : A_DTS
Duration : 1 h 34 min
Bit rate mode : Variable / Constant / Constant
Bit rate : 4 618 kb/s / 1 509 kb/s / 1 509 kb/s
Channel(s) : 8 channels / 7 channels / 6 channels
Channel positions : Front: L C R, Side: L R, Back: L R, LFE / Front: L C R, Side: L R, Back: C, LFE / Front: L C R, Side: L R, LFE
Sampling rate : 48.0 kHz
Frame rate : 93.750 FPS (512 spf)
Bit depth : 24 bits
Compression mode : Lossless / Lossy / Lossy
Stream size : 3.05 GiB (16%)
Title : Original
Language : English
Default : No
Forced : No

Text #1
ID : 4
Format : UTF-8
Codec ID : S_TEXT/UTF8
Codec ID/Info : UTF-8 Plain Text
Duration : 1 h 21 min
Bit rate : 0 b/s
Count of elements : 3
Stream size : 145 Bytes (0%)
Title : Forced [iTunes]
Language : Ukrainian
Default : Yes
Forced : Yes

Text #2
ID : 5
Format : UTF-8
Codec ID : S_TEXT/UTF8
Codec ID/Info : UTF-8 Plain Text
Duration : 1 h 33 min
Bit rate : 89 b/s
Count of elements : 1225
Stream size : 61.3 KiB (0%)
Title : Full [iTunes]
Language : Ukrainian
Default : No
Forced : No

Text #3
ID : 6
Format : UTF-8
Codec ID : S_TEXT/UTF8
Codec ID/Info : UTF-8 Plain Text
Duration : 1 h 23 min
Bit rate : 60 b/s
Count of elements : 1221
Stream size : 36.9 KiB (0%)
Title : Full
Language : English
Default : No
Forced : No
Скріншоти



Джерело: &
Особиста оцінка: 0 - не дивився


Золотий реліз (завантажене не впливає на рейтинг)
 Трекер:    Зареєстрований   

Завантажити / скачати мультфільм українською



відео для новачків



 Зареєстрований:   2018-02-08 12:02
 Розмір:   19.47 GB 
 Оцінка мультфільму:   8.7/10 (Голосів: 12)
   
Ваш часовий пояс: GMT + 2 Години

Нова тема   Відповісти