Повний розковбас / Sausage Party (2016) Remux 1080p Ukr/Eng | Sub Eng

Нові коментарі

Нова тема   Відповісти
Автор Повідомлення
staf777 
Відео Гуртом - підтримка та поширення
Відео Гуртом - підтримка та поширення


З нами з: 16.11.16
Востаннє: 26.02.20
Повідомлень: 3526

2018-02-07 13:34  
Повний розковбас / Sausage Party (2016) Remux 1080p Ukr/Eng | Sub Eng

Повний розковбас / Sausage Party (2016) Remux 1080p Ukr/Eng | Sub Eng


Жанр: анімація, чорна комедія, пригодницький
Країна: США



Кінокомпанія: Nitrogen Studios Canada, Annapurna Pictures, Point Grey Pictures, Sony Pictures Imageworks
Режисер: Грег Тірнан, Конрад Вернон
Актори: Крістен Віг — Бренда (булочка від хот-догу), Джона Гілл — Карл (сосиска), Білл Гейдер — гуакамоле / соус з авокадо Майкл Сера — Баррі (сосиска), Джеймс Франко — шматок тосту, Денні Мак-Брайд — гірчиця, Крейг Робінсон — містер Грітц, Пол Радд — Нікі да Вінчі (томат)

Сюжет:
Перша комедія для дорослих про неймовірні пригоди їжі з супермаркету. Їстівним друзям потрібно отримати відповідь на головне питання: чи є життя за стінами супермаркету, і що ж відбувається з продуктами після того, як вони потрапляють до людей додому?


Рейтинг MPAA: R - дітям до 17 років обов'язкова присутність дорослого
Вікова категорія: 18+

Тривалість: 01:28:45
Якість: Remux 1080p
Відео:
кодек:
розмір кадру: 1920x1080
бітрейт: 24,9 Mб/с

Аудіо # 1:
мова: українська
переклад: професійний дубльований
кодек: 2.0
бітрейт: 192 кб/с

Аудіо # 2:
мова: англійська
переклад: оригінал
кодек: -HD MA 5.1
бітрейт: 2326 кб/с

Субтитри # 1-2:
мова: англійська
тип: програмні (м'які)
формат: *.srt
Info
General
Unique ID : 196924573024323653526713203960745204336 (0x94264B0EFACB7827A608F1452D369A70)
Complete name : I:\Sausage Party (2016) Remux 1080p [Ukr][Eng][Sub Eng][Hurtom].
Format :
Format version : Version 4 / Version 2
File size : 17.0 GiB
Duration : 1 h 28 min
Overall bit rate mode : Variable
Overall bit rate : 27.5 Mb/s
Movie name : Sausage Party (2016) Remux 1080p [Ukr][Eng][Sub Eng][Hurtom]
Encoded date : UTC 2018-02-07 15:10:04
Writing application : v9.8.0 ('Kuglblids') 64bit
Writing library : libebml v1.3.4 + v1.4.5

Video
ID : 1
Format : AVC
Format/Info : Advanced Video Codec
Format profile : [email protected]
Format settings, CABAC : Yes
Format settings, ReFrames : 2 frames
Format settings, GOP : M=1, N=10
Codec ID : V_MPEG4/ISO/AVC
Duration : 1 h 28 min
Bit rate mode : Variable
Bit rate : 24.9 Mb/s
Width : 1 920 pixels
Height : 1 080 pixels
Display aspect ratio : 16:9
Frame rate mode : Constant
Frame rate : 23.976 (24000/1001) FPS
Color space : YUV
Chroma subsampling : 4:2:0
Bit depth : 8 bits
Scan type : Progressive
Bits/(Pixel*Frame) : 0.501
Stream size : 15.5 GiB (91%)
Title : Sausage Party (2016)
Language : English
Default : Yes
Forced : No

Audio #1
ID : 2
Format : AC-3
Format/Info : Audio Coding 3
Mode extension : CM (complete main)
Format settings, Endianness : Big
Codec ID : A_AC3
Duration : 1 h 28 min
Bit rate mode : Constant
Bit rate : 192 kb/s
Channel(s) : 2 channels
Channel positions : Front: L R
Sampling rate : 48.0 kHz
Frame rate : 31.250 FPS (1536 spf)
Bit depth : 16 bits
Compression mode : Lossy
Stream size : 122 MiB (1%)
Language : Ukrainian
Default : Yes
Forced : Yes

Audio #2
ID : 3
Format :
Format/Info : Digital Theater Systems
Format profile : MA / Core
Mode : 16
Format settings, Endianness : Big
Codec ID : A_DTS
Duration : 1 h 28 min
Bit rate mode : Variable / Constant
Bit rate : 2 326 kb/s / 1 509 kb/s
Channel(s) : 6 channels
Channel positions : Front: L C R, Side: L R, LFE
Sampling rate : 48.0 kHz
Frame rate : 93.750 FPS (512 spf)
Bit depth : 16 bits
Compression mode : Lossless / Lossy
Stream size : 1.44 GiB (8%)
Title : Original
Language : English
Default : No
Forced : No

Text #1
ID : 4
Format : UTF-8
Codec ID : S_TEXT/UTF8
Codec ID/Info : UTF-8 Plain Text
Duration : 1 h 26 min
Bit rate : 85 b/s
Count of elements : 1457
Stream size : 53.8 KiB (0%)
Title : Full
Language : English
Default : No
Forced : No

Text #2
ID : 5
Format : UTF-8
Codec ID : S_TEXT/UTF8
Codec ID/Info : UTF-8 Plain Text
Duration : 1 h 27 min
Bit rate : 91 b/s
Count of elements : 1703
Stream size : 58.0 KiB (0%)
Title : SDH
Language : English
Default : No
Forced : No
Скріншоти



Подяка пану Hanway за синхронізацію і пану AngryBirdsUA за доріжку.
Джерело: &
Особиста оцінка: 0 - не дивився


Золотий реліз (завантажене не впливає на рейтинг)
 Трекер:    Зареєстрований   

Завантажити / скачати мультфільм українською



відео для новачків



 Зареєстрований:   2018-02-07 18:08
 Розмір:   17.02 GB 
 Оцінка мультфільму:   7.6/10 (Голосів: 21)
   
Інші релізи
   Повний розковбас / Sausage Party (2016) 720p Ukr/Eng leicheman  11 / 0   2.76 GB   2016-12-06 12:47 
   Повний розковбас / Sausage Party (2016) 1080p Ukr/Eng | Sub Eng 11FrYkT  4 / 0   7.48 GB   2016-12-05 15:04 
   Повний розковбас / Sausage Party (2016) AVC Ukr/Eng | Sub Eng 11FrYkT  10 / 0   1.82 GB   2016-12-05 13:39 
   Повний розковбас / Sausage Party (2016) AngryBirdsUA  12 / 0   1.45 GB   2016-12-05 12:49 
bot 
робот


З нами з: 30.09.07
Востаннє: 26.05.05
Повідомлень: 23375

2018-02-07 18:08  
Тему перенесено з Анонси релізів до форуму Мультфільми в HD


staf777

Ваш часовий пояс: GMT + 2 Години

Нова тема   Відповісти