Дивергент. Глава 3: Віддана / Allegiant (2016) Remux 1080p Ukr/Eng | Sub Eng

Нові коментарі

Нова тема   Відповісти
Автор Повідомлення
staf777 
Попереджень: 1
Попереджень: 1 


З нами з: 16.11.16
Востаннє: 10.12.18
Повідомлень: 1890

2018-02-07 09:36  
Дивергент. Глава 3: Віддана / Allegiant (2016) Remux 1080p Ukr/Eng | Sub Eng

Дивергент. Глава 3: Віддана / Allegiant (2016) Remux 1080p Ukr/Eng | Sub Eng
Оригінальна обкладинка

Жанр: пригоди, фантастика
Країна: США



Кінокомпанія: Lionsgate, Red Wagon Productions, Summit Entertainment
Режисер: Роберт Швентке
Актори: Шейлін Вудлі, Тео Джеймс, Зої Кравіц, Майлз Теллер, Наомі Воттс, Джефф Деніелс, Меґґі Кью, Енсел Ельґорт, Джонні Вестон, Білл Скарсґард

Сюжет:
Третій фільм серії "Дивергент". Це перша з двох картин, заснована на романі "Allegiant", який завершує трилогію Вероніки Рот. Після подій попередніх частин, Тріс вирушає разом із Фором за межі стіни, яка охоплює Чикаго. Вперше їм доведеться залишити свої родини і рідне місто, щоб знайти вирішення важливої проблеми. Але світ за стіною виявляється куди складнішим, ніж герої могли подумати. Беатріс і Фор повинні вирішити, кому вони можуть довіряти. Починається битва, в якій може загинути все людство. Тріс, для того, щоб залишитися в живих, змушена зробити складний вибір щодо вірності, хоробрості і жертовності.


Тривалість: 02:00:33
Якість: Remux 1080p
Відео:
кодек:
розмір кадру: 1920x1080
бітрейт: 34,2 Mб/с

Аудіо # 1:
мова: українська
переклад: багатоголосий закадровий
кодек: 2.0
бітрейт: 192 кб/с

Аудіо # 2:
мова: англійська
переклад: оригінал
кодек: TrueHD 7.1
бітрейт: 4793 кб/с

Субтитри # 1-2:
мова: англійська
тип: програмні (м'які)
формат: *.srt
Info
General
Unique ID : 246929413980482596282936186616569794787 (0xB9C4E0109D07BFEDA0929F79B6C610E3)
Complete name : P:\Майбутні релізи\Allegiant (2016) Remux 1080p [Ukr][Eng][Sub Eng][Hurtom].
Format :
Format version : Version 4 / Version 2
File size : 33.0 GiB
Duration : 2 h 0 min
Overall bit rate mode : Variable
Overall bit rate : 39.2 Mb/s
Movie name : Allegiant (2016) Remux 1080p [Ukr][Eng][Sub Eng][Hurtom]
Encoded date : UTC 2018-02-07 07:57:45
Writing application : v9.8.0 ('Kuglblids') 64bit
Writing library : libebml v1.3.4 + v1.4.5

Video
ID : 1
Format : AVC
Format/Info : Advanced Video Codec
Format profile : [email protected]
Format settings, CABAC : Yes
Format settings, ReFrames : 4 frames
Codec ID : V_MPEG4/ISO/AVC
Duration : 2 h 0 min
Bit rate mode : Variable
Bit rate : 34.2 Mb/s
Maximum bit rate : 36.5 Mb/s
Width : 1 920 pixels
Height : 1 080 pixels
Display aspect ratio : 16:9
Frame rate mode : Constant
Frame rate : 23.976 (23976/1000) FPS
Original frame rate : 23.976 (24000/1001) FPS
Color space : YUV
Chroma subsampling : 4:2:0
Bit depth : 8 bits
Scan type : Progressive
Bits/(Pixel*Frame) : 0.687
Stream size : 28.8 GiB (87%)
Language : English
Default : Yes
Forced : No

Audio #1
ID : 2
Format : AC-3
Format/Info : Audio Coding 3
Mode extension : CM (complete main)
Format settings, Endianness : Big
Codec ID : A_AC3
Duration : 2 h 0 min
Bit rate mode : Constant
Bit rate : 192 kb/s
Channel(s) : 2 channels
Channel positions : Front: L R
Sampling rate : 48.0 kHz
Frame rate : 31.250 FPS (1536 spf)
Bit depth : 16 bits
Compression mode : Lossy
Stream size : 166 MiB (0%)
Language : Ukrainian
Default : Yes
Forced : Yes

Audio #2
ID : 3
Format : Atmos / TrueHD
Codec ID : A_TRUEHD
Duration : 2 h 0 min
Bit rate mode : Variable
Bit rate : 4 793 kb/s
Maximum bit rate : 6 219 kb/s
Channel(s) : Object Based / 8 channels
Channel positions : Object Based / Front: L C R, Side: L R, Back: L R, LFE
Sampling rate : / 48.0 kHz
Frame rate : 1 200.000 FPS (40 spf)
Compression mode : Lossless
Delay relative to video : 1 ms
Stream size : 4.04 GiB (12%)
Title : Original
Language : English
Default : No
Forced : No

Text #1
ID : 4
Format : UTF-8
Codec ID : S_TEXT/UTF8
Codec ID/Info : UTF-8 Plain Text
Duration : 1 h 48 min
Bit rate : 45 b/s
Count of elements : 1173
Stream size : 36.3 KiB (0%)
Title : Full
Language : English
Default : No
Forced : No

Text #2
ID : 5
Format : UTF-8
Codec ID : S_TEXT/UTF8
Codec ID/Info : UTF-8 Plain Text
Duration : 1 h 49 min
Bit rate : 50 b/s
Count of elements : 1312
Stream size : 40.3 KiB (0%)
Title : SDH
Language : English
Default : No
Forced : No
Скріншоти




Подяка пану Electroz за доріжку.
Джерело: &
Особиста оцінка: 0 - не дивився



Золотий реліз (завантажене не впливає на рейтинг)
 Трекер:    Зареєстрований   

Завантажити / скачати фільм українською



відео для новачків



 Зареєстрований:   2018-02-07 11:39
 Розмір:   33.02 GB 
 Оцінка фільму:   6.7/10 (Голосів: 9)
   
kovpack 
Поважний учасник


З нами з: 10.12.07
Востаннє: 08.12.18
Повідомлень: 212

2018-02-10 10:30  
Цитата:
Але світ за стіною виявляється куди складнішИМ, ніж герої могли подумати

igor911 
Відео Гуртом
Відео Гуртом


З нами з: 18.01.08
Востаннє: 10.12.18
Повідомлень: 11555

2018-02-10 10:32  
kovpack написано:
складнішИМ

виправив

Ваш часовий пояс: GMT + 2 Години

Нова тема   Відповісти