Копи та злодії / Cops and Robbers (1973) 1080i Ukr/Eng

Нові коментарі

Нова тема   Відповісти
Автор Повідомлення
urij546724 
Відео Гуртом - фільмокрай
Відео Гуртом - фільмокрай


З нами з: 16.03.10
Востаннє: 18.11.19
Повідомлень: 5523

2018-02-06 18:59  
Копи та злодії / Cops and Robbers (1973) 1080i Ukr/Eng

Копи та злодії / Cops and Robbers (1973) 1080i Ukr/Eng


Жанр: кримінальний, комедія
Країна: США



Кіностудія / кінокомпанія: Elliott Kastner Productions
Режисер: Арам Авакян / Aram Avakian
Актори: Кліфф Горма (Cliff Gorman), Джозеф Болонья (Joseph Bologna), Шарлін Даллас (Charlene Dallas), Джеймс Фергюсон (James Ferguson), Френсіс Фостер (Frances Foster)...

Сюжет:
Том і його напарник Джо - поліцейські з Нью-Йорка. Живуть на зарплату, а навколо красиве життя: нероби, повії, мафія і дорогі автомобілі. Поліцейським хочеться розбагатіти і забути про службу, але як це зробити? Очевидно, слід щось вкрасти, але що саме? Вони приходять за порадою до відомого мафіозі...


Тривалість: 01:22:36
Якість: 1080i
Відео:
кодек:
розмір кадру: 1920 х 1080
бітрейт: 6539 кб/с
частота кадрів: 25 к/с (fps)

Аудіо #1:
мова: українська
переклад: багатоголосий закадровий
кодек: MPA 2.0
бітрейт: 128 кб/с
запис звуку з каналу: АМС

Аудіо #2:
мова: англійська
переклад: оригінал
кодек: MPA 2.0
бітрейт: 192 кб/с
Media info:
General
Unique ID : 187957161635361284516345318719013059008 (0x8D673B8ABA22948ABCDD12BBBD20F9C0)
Complete name : E:\HD1\Cops and Robbers (1973) [ukr.AMC_eng] 1080i [Hurtom] by urij546724.
Format :
Format version : Version 2
File size : 4.04 GiB
Duration : 1h 22mn
Overall bit rate : 6 998 Kbps
Movie name : Cops and Robbers (1973) [ukr.AMC_eng] 1080i [Hurtom] by urij546724
Encoded date : UTC 2018-02-06 16:17:23
Writing application : v2.9.7 ('Tenderness') built on Jul 1 2009 18:43:35
Writing library : libebml v0.7.7 + v0.8.1
DURATION : 01:22:36.280000000
NUMBER_OF_FRAMES : 247814
NUMBER_OF_BYTES : 4135117543
_STATISTICS_WRITING_APP : v7.9.0 ('Birds') 64bit
_STATISTICS_WRITING_DATE_UTC : 2015-05-12 06:19:29
_STATISTICS_TAGS : BPS DURATION NUMBER_OF_FRAMES NUMBER_OF_BYTES

Video
ID : 1
Format : AVC
Format/Info : Advanced Video Codec
Format profile : [email protected]
Format settings, CABAC : Yes
Format settings, ReFrames : 4 frames
Format settings, GOP : M=4, N=28
Codec ID : V_MPEG4/ISO/AVC
Duration : 1h 22mn
Bit rate : 6 539 Kbps
Width : 1 920 pixels
Height : 1 080 pixels
Display aspect ratio : 16:9
Frame rate mode : Constant
Frame rate : 25.000 fps
Standard : Component
Color space : YUV
Chroma subsampling : 4:2:0
Bit depth : 8 bits
Scan type : Interlaced
Scan order : Top Field First
Bits/(Pixel*Frame) : 0.126
Stream size : 3.77 GiB (93%)
Title : Cops and Robbers (1973) 1080i [Hurtom] by urij546724
Language : Ukrainian
Default : Yes
Forced : No
Color primaries : BT.709
Transfer characteristics : BT.709
Matrix coefficients : BT.709

Audio #1
ID : 2
Format : MPEG Audio
Format version : Version 1
Format profile : Layer 2
Codec ID : A_MPEG/L2
Codec ID/Hint : MP2
Duration : 1h 22mn
Bit rate mode : Constant
Bit rate : 128 Kbps
Channel count : 2 channels
Sampling rate : 48.0 KHz
Compression mode : Lossy
Delay relative to video : 448ms
Stream size : 75.6 MiB (2%)
Title : Українська доріжка
Language : Ukrainian
Default : Yes
Forced : Yes

Audio #2
ID : 3
Format : MPEG Audio
Format version : Version 1
Format profile : Layer 2
Codec ID : A_MPEG/L2
Codec ID/Hint : MP2
Duration : 1h 22mn
Bit rate mode : Constant
Bit rate : 192 Kbps
Channel count : 2 channels
Sampling rate : 48.0 KHz
Compression mode : Lossy
Delay relative to video : 80ms
Stream size : 113 MiB (3%)
Title : Оригінальна доріжка
Language : English
Default : No
Forced : No
Скріншоти:





Трейлери

Семпл
Джерело 1_________Джерело 2_________Джерело 3_________Джерело 4_________Джерело 5
У випадку, якщо з усіх джерел семпл видалять, прохання повідомити мені у ПРИВАТ


Подяка:

1. Пану Sando7 за запис звуку з ТБ.


Джерело:


Срібний реліз (на рейтинг впливає 50% завантаженого)
 Трекер:    Зареєстрований   

Завантажити / скачати фільм українською



відео для новачків



 Зареєстрований:   2018-02-06 18:59
 Розмір:   4.04 GB 
 Оцінка фільму:   10/10 (Голосів: 4)
 Прохання залишати коментарі і не тікати з роздачі.
   
Інші релізи
   Копи та злодії / Cops and Robbers (1973) Ukr/Eng Arsenfpu  4 / 0   1.38 GB   2018-04-15 09:29 
Ваш часовий пояс: GMT + 2 Години

Нова тема   Відповісти