Джеймс Бонд. Агент 007: Корабель «Місячний гонщик» / James Bond: Moonraker (1979) AVC 2xUkr/Eng

Нові коментарі

Нова тема   Відповісти
Автор Повідомлення
Arsenfpu 
Відео Гуртом - фільмокрай
Відео Гуртом - фільмокрай


З нами з: 30.04.09
Востаннє: 17.10.19
Повідомлень: 6148

2018-02-06 13:37  
Джеймс Бонд. Агент 007: Корабель «Місячний гонщик» / James Bond: Moonraker (1979) AVC 2xUkr/Eng

Джеймс Бонд. Агент 007: Корабель «Місячний гонщик» / James Bond: Moonraker (1979) AVC 2xUkr/Eng


Жанр: бойовик, фантастика, пригодницький, трилер
Країна: Велика Британія, Франція



Кінокомпанія: Danjaq, Eon Productions Ltd., Les Productions Artistes Associés
Режисер: Льюіс Гільберт
Актори: Роджер Мур, Річард Кіл, Бернард Лі, Джефрі Кін, Тоширо Суга, Бернард Лі

Сюжет:
За маскою доброчесного американського мільярдера ховається справжнє обличчя божевільного ученого. Він виношує безумний по своїй жорстокості план: влаштувати на Землі апокаліпсис, і коли на планеті не залишиться жодної живої душі, населити її вирощеними на космічній станції суперлюдьми. Щоб перешкодити планам Дракса, Бонду доводиться побувати в Каліфорнії, Бразилії, джунглях Амазонки і, врешті-решт, відправитися в космос, де і відбудуться найголовніші події.


Тривалість: 02:06:28
Якість:
Відео:
кодек:
розмір кадру: 1136 х 480
бітрейт: 1514 кб/с

Аудіо # 1:
мова: українська
переклад: багатоголосий закадровий
кодек: 2.0
бітрейт: 192 кб/с

Аудіо # 2:
мова: українська
переклад: багатоголосий закадровий
кодек: 2.0
бітрейт: 192 кб/с

Аудіо # 3:
мова: англійська
переклад: оригінал
кодек: 2.0
бітрейт: 192 кб/с
Скріншоти














Джерело: &
За доіжку від 1+1 дякую п.drop_plz, SalCom
За запис з ICTV дякую пану Bohdan237
Особиста оцінка: не дивився



Срібний реліз (на рейтинг впливає 50% завантаженого)
 Трекер:    Зареєстрований   

Завантажити / скачати фільм українською



відео для новачків



 Зареєстрований:   2018-02-06 13:37
 Розмір:   1.89 GB 
 Оцінка фільму:   8.9/10 (Голосів: 18)
   
Arsenfpu 
Відео Гуртом - фільмокрай
Відео Гуртом - фільмокрай


З нами з: 30.04.09
Востаннє: 17.10.19
Повідомлень: 6148

2018-02-06 13:51  
Маю сьогодні свято Wide grin - перший власний AVC-ріп.
Cartwright 
Поважний учасник


З нами з: 23.03.13
Востаннє: 16.10.19
Повідомлень: 235

2018-02-06 14:12  
ICTV показує всю Бондіану з одними і тими ж акторами озвучки? Тобто в Бонда один український голос?
Arsenfpu 
Відео Гуртом - фільмокрай
Відео Гуртом - фільмокрай


З нами з: 30.04.09
Востаннє: 17.10.19
Повідомлень: 6148

2018-02-06 14:13  
Cartwright
Не перевіряв.

Yarik M 
VIP


З нами з: 25.10.12
Востаннє: 17.10.19
Повідомлень: 520

2018-02-06 14:19  
Arsenfpu написано:
перший власний AVC-ріп

В MeGUI робили? Я не так давно теж цим займався певний час.

igor911 
Модератор відео


З нами з: 18.01.08
Востаннє: 17.10.19
Повідомлень: 13522

2018-02-06 15:18  
Arsenfpu написано:
перший власний AVC-ріп.

можеш викласти МедіаІнфо?

Додано через 5 хвилин 31 секунду:

Arsenfpu написано:
Muxing mode : Header stripping
Writing application : v5.4.0

треба вимкнути той режим - власники телеків не зможуть його дивитися. Встанови нову версію MkvToolNix'а - там відключено цей режим за замовчанням.

Arsenfpu 
Відео Гуртом - фільмокрай
Відео Гуртом - фільмокрай


З нами з: 30.04.09
Востаннє: 17.10.19
Повідомлень: 6148

2018-02-06 15:20  
igor911
То з іншого компа. Зараз правильне відкрию:
General
Unique ID : 190189513876439143829679808923082946549 (0x8F152B0148237CEEBC10227EC0B3F7F5)
Complete name : I:\Film_7\Moonraker (1979) [2xUkr,Eng] AVC [Hurtom].
Format :
Format version : Version 2
File size : 1.89 GiB
Duration : 2 h 6 min
Overall bit rate : 2 134 kb/s
Encoded date : UTC 2018-02-06 10:27:37
Writing application : v5.4.0 ('Piper') built on Mar 10 2012 13:34:39
Writing library : libebml v1.2.3 + v1.3.0

Video
ID : 1
Format : AVC
Format/Info : Advanced Video Codec
Format profile : [email protected]
Format settings : CABAC / 8 Ref Frames
Format settings, CABAC : Yes
Format settings, ReFrames : 8 frames
Codec ID : V_MPEG4/ISO/AVC
Duration : 2 h 6 min
Bit rate : 1 515 kb/s
Width : 1 136 pixels
Height : 480 pixels
Display aspect ratio : 2.35:1
Frame rate mode : Constant
Frame rate : 23.976 (24000/1001) FPS
Color space : YUV
Chroma subsampling : 4:2:0
Bit depth : 8 bits
Scan type : Progressive
Bits/(Pixel*Frame) : 0.116
Stream size : 1.34 GiB (71%)
Writing library : core 152 r2851 ba24899
Encoding settings : cabac=1 / ref=8 / deblock=1:-1:-1 / analyse=0x3:0x133 / me=umh / subme=10 / psy=1 / psy_rd=1.00:0.15 / mixed_ref=1 / me_range=32 / chroma_me=1 / trellis=2 / 8x8dct=1 / cqm=0 / deadzone=21,11 / fast_pskip=0 / chroma_qp_offset=-3 / threads=6 / lookahead_threads=1 / sliced_threads=0 / nr=0 / decimate=1 / interlaced=0 / bluray_compat=0 / constrained_intra=0 / bframes=3 / b_pyramid=2 / b_adapt=2 / b_bias=0 / direct=3 / weightb=1 / open_gop=0 / weightp=2 / keyint=240 / keyint_min=23 / scenecut=40 / intra_refresh=0 / rc_lookahead=60 / rc=crf / mbtree=1 / crf=21.0 / qcomp=0.60 / qpmin=0 / qpmax=69 / qpstep=4 / vbv_maxrate=31250 / vbv_bufsize=31250 / crf_max=0.0 / nal_hrd=none / filler=0 / ip_ratio=1.40 / aq=1:1.00
Default : Yes
Forced : No

Audio #1
ID : 2
Format : AC-3
Format/Info : Audio Coding 3
Codec ID : A_AC3
Duration : 2 h 6 min
Bit rate mode : Constant
Bit rate : 192 kb/s
Channel(s) : 2 channels
Channel positions : Front: L R
Sampling rate : 48.0 kHz
Frame rate : 31.250 FPS (1536 SPF)
Bit depth : 16 bits
Compression mode : Lossy
Stream size : 174 MiB (9%)
Language : Ukrainian
Service kind : Complete Main
Default : Yes
Forced : Yes

Audio #2
ID : 3
Format : AC-3
Format/Info : Audio Coding 3
Codec ID : A_AC3
Duration : 2 h 6 min
Bit rate mode : Constant
Bit rate : 192 kb/s
Channel(s) : 2 channels
Channel positions : Front: L R
Sampling rate : 48.0 kHz
Frame rate : 31.250 FPS (1536 SPF)
Bit depth : 16 bits
Compression mode : Lossy
Stream size : 174 MiB (9%)
Language : Ukrainian
Service kind : Complete Main
Default : No
Forced : No

Audio #3
ID : 4
Format : AC-3
Format/Info : Audio Coding 3
Codec ID : A_AC3
Duration : 2 h 6 min
Bit rate mode : Constant
Bit rate : 192 kb/s
Channel(s) : 2 channels
Channel positions : Front: L R
Sampling rate : 48.0 kHz
Frame rate : 31.250 FPS (1536 SPF)
Bit depth : 16 bits
Compression mode : Lossy
Stream size : 174 MiB (9%)
Language : English
Service kind : Complete Main
Default : No
Forced : No

boroznaya 
Попереджень: 1
Попереджень: 1 


З нами з: 02.11.12
Востаннє: 16.10.19
Повідомлень: 2943

2018-02-06 15:41  
Arsenfpu написано:
Маю сьогодні свято - перший власний AVC-ріп.

Вітаю, шановний колего!
Чому саме Бонд? Якщо не секрет?

Arsenfpu 
Відео Гуртом - фільмокрай
Відео Гуртом - фільмокрай


З нами з: 30.04.09
Востаннє: 17.10.19
Повідомлень: 6148

2018-02-06 15:45  
boroznaya
Бо був запис звуку.

Додано через 54 секунди:

Yarik M
Так.

igor911 
Модератор відео


З нами з: 18.01.08
Востаннє: 17.10.19
Повідомлень: 13522

2018-02-06 15:48  
Arsenfpu написано:
ref=8 / me=umh / subme=10 / me_range=32 / fast_pskip=0 / bframes=3 / crf=21.0

загалом непогано, єдине, що для якості бажано bframes ставити не менше 5-6, а при таких великих значеннях crf (21) дивитися лог (чи робити ріп тестової вибірки) - щоб кванти не зашкалювали більше 23-25
приклад написано:
frame I:790 Avg QP:17.63 size:112601
frame P:22662 Avg QP:18.81 size: 64113
frame B:101146 Avg QP:21.02 size: 37024
consecutive B-frames: 1.0% 1.1% 4.4% 10.5% 12.2% 49.0% 8.4% 3.2% 3.3% 2.3% 1.7% 2.0% 1.0%

тут кванти норм - 17-21, B-frames=12 - норм (немає значень менше 1%)


для тестової вибірки в скрипт в текстовому редакторі перед командами кропу та ресайзу вставити три стрічки:

Цитата:
selectTotal1=framecount()/100
selectTotal2=selectTotal1*2
selectrangeevery(selectTotal2,50)


Закодувати цю тестову вибірку (кілька хвилин) - подивитись лог (в мегуї - в теці програми є папка logs - в ній текстові файли по датах) - якщо потрібно (кванти перевищують 23-25) зменшувавати значення crf або збільшувати бітрейт у випадку двопрохідного кодування.

Arsenfpu 
Відео Гуртом - фільмокрай
Відео Гуртом - фільмокрай


З нами з: 30.04.09
Востаннє: 17.10.19
Повідомлень: 6148

2018-02-06 16:21  
igor911 написано:
bframes ставити не менше 5-6, а при таких великих значеннях crf (21)

Орієнтувався на рекомендації теми - https://toloka.to/t63946

igor911 
Модератор відео


З нами з: 18.01.08
Востаннє: 17.10.19
Повідомлень: 13522

2018-02-06 16:48  
Arsenfpu написано:
Орієнтувався на рекомендації теми

Цитата:
B-frames - 3 (для сумісності із пристроями як Xbox 360

навіть, якщо хтось захоче дивитись фільм з Xbox 360 (я за 10 років на Толоці не зустрічав ЖОДНОГО комента про цю приставку в розділі Відео), все одно приставка підключена до телека, а вони вільно відтворюють з bframes = 5-9, це підвищить якість та зменшить розмір файлу.

Додано через 13 хвилин 59 секунд:

igor911 написано:
якщо хтось захоче дивитись фільм з Xbox 360

це ще б мало хоч якийсь сенс, якби торентом можна було вантажити одразу на приставку, але ж під її ОС немає торент-клієнтів.

Комбат1995 
Свій


З нами з: 09.01.16
Востаннє: 17.10.19
Повідомлень: 103

2018-02-06 16:52  
У наших Бондів тільки два голоса - Стальчука та Жоніна)
Ваш часовий пояс: GMT + 2 Години

Нова тема   Відповісти