Ми - монстри / Happy Family (2017) 720p Ukr/Eng | Sub Ita

Нові коментарі

Нова тема   Відповісти
Автор Повідомлення
Anonymous 







2018-02-05 22:57  
Ми - монстри / Happy Family (2017) 720p Ukr/Eng | Sub Ita

Ми - монстри / Happy Family (2017) 720p Ukr/Eng | Sub Ita


Жанр: анімація, комедія, сімейний
Країна: Велика Британія, Німеччина



Кінокомпанія: Ambient Entertainment GmbH, United Entertainment, Mack Media
Режисер: Хольгер Таппе / Holger Tappe
Ролі озвучують: Емілі Вотсон / Emily Watson, Джейсон Айзекс / Jason Isaacs, Нік Фрост / Nick Frost, Джессіка Браун Фіндлей / Jessica Brown Findlay, Селія Імрі / Celia Imrie та інші

Сюжет:
Емма і Френк – звичайні батьки, а Фей і Макс – їх звичайні діти. Сім'я живе своїм життям, має стандартні для багатьох людей проблеми. На жаль, вони не можуть назвати себе щасливими. Щоб урізноманітнити якось своє сімейне життя, Емма замовляє в магазині костюмів "Світ вампірів" наряди для всієї родини. Але трубку піднімає сам граф Дракула. Він пропонує відьмі зачарувати сім'ю й перетворити в монстрів. Тепер Френк став Франкенштейном, Емма – вампіром, Фей – мумією, а Макс – перевертнем. Якщо вони хочуть стати такими, як раніше, сім'я повинна зрозуміти, що для них щастя і знайти його. Адже монстрами можуть бути тільки нещасні.
Офіційні українські трейлери:




Рейтинг MPAA: PG - рекомендується присутність батьків
Вікова категорія: 12+

Тривалість: 01:33:14
Якість: 720p

Відео:
кодек:
розмір кадру: 1280x534
бітрейт: 5819 кб/с

Аудіо # 1:
мова: українська
переклад: професійний дубльований | студія Pie Post Production
кодек: 5.1
бітрейт: 384 кб/с
Інформація про дубляж
Переклад: Лідія Громовенко
Режисер дубляжу: Лідія Громовенко
Звукорежисер: Юлія Власкіна
Звукорежисер перезапису: Віталій Ящук
Ролі дублювали: Катерина Сергеєва, Михайло Кришталь, Олена Борозенець, В'ячеслав Дудко, Ольга Радчук, Андрій Альохін, Олена Узлюк, Катерина Буцька, Андрій Соболєв, Володимир Плахов та інші.

Фільм дубльовано компанією Pie Post Production на замовлення Вольґа Україна.
Аудіо # 2:
мова: англійська
переклад: оригінал
кодек: 5.1
бітрейт: 448 кб/с

Субтитри:
мова: італійська (SDH)
тип: програмні (м'які)
формат: *.srt

Збережено оригінальні розділи, як на Blu-ray
Info
Код:
Complete name               : Happy Family (2017) [Ukr,Eng sub.Ita] 720p [Hurtom].
Format                      :
Format version              : Version 4 / Version 2
File size                   : 4.33 GiB
Duration                    : 1 h 33 min
Overall bit rate            : 6 651 kb/s
Movie name                  : Ми - монстри / Happy Family (2017) [Ukr,Eng sub.Ita] 720p [Hurtom]
Released date               : 2017
Encoded date                : UTC 2018-02-24 07:10:12
Writing application         : v20.0.0 ('I Am The Sun') 64-bit
Writing library             : libebml v1.3.5 + v1.4.8
Cover                       : Yes
Comment                     : http://www.imdb.com/title/tt6572702/
Attachments                 : cover.jpg
ARTIST                      : Емілі Вотсон / Emily Watson, Джейсон Айзекс / Jason Isaacs, Нік Фрост / Nick Frost, Джессіка Браун Фіндлей / Jessica Brown Findlay, Селія Імрі / Celia Imrie та інші
DIRECTOR                    : Хольгер Таппе / Holger Tappe
GENRE                       : анімація, комедія, сімейний
SYNOPSIS                    : Емма і Френк – звичайні батьки, а Фей і Макс – їх звичайні діти. Сім'я живе своїм життям, має стандартні для багатьох людей проблеми. На жаль, вони не можуть назвати себе щасливими. Щоб урізноманітнити якось своє сімейне життя, Емма замовляє в магазині костюмів "Світ вампірів" наряди для всієї родини. Але трубку піднімає сам граф Дракула. Він пропонує відьмі зачарувати сім'ю й перетворити в монстрів. Тепер Френк став Франкенштейном, Емма – вампіром, Фей – мумією, а Макс – перевертнем. Якщо вони хочуть стати такими, як раніше, сім'я повинна зрозуміти, що для них щастя і знайти його. Адже монстрами можуть бути тільки нещасні...
Url                         : https://toloka.to/t87154

Video
ID                          : 1
Format                      : AVC
Format/Info                 : Advanced Video Codec
Format profile              : [email protected]
Format settings             : CABAC / 9 Ref Frames
Format settings, CABAC      : Yes
Format settings, ReFrames   : 9 frames
Codec ID                    : V_MPEG4/ISO/AVC
Duration                    : 1 h 33 min
Bit rate                    : 5 819 kb/s
Width                       : 1 280 pixels
Height                      : 534 pixels
Display aspect ratio        : 2.40:1
Frame rate mode             : Constant
Frame rate                  : 24.000 FPS
Color space                 : YUV
Chroma subsampling          : 4:2:0
Bit depth                   : 8 bits
Scan type                   : Progressive
Bits/(Pixel*Frame)          : 0.355
Stream size                 : 3.79 GiB (87%)
Title                       : Ми - монстри / Happy Family (2017) 720p [potroks]
Writing library             : core 155 r2901M 7d0ff22
Encoding settings           : cabac=1 / ref=9 / deblock=1:-1:-1 / analyse=0x3:0x131 / me=umh / subme=11 / psy=1 / psy_rd=1.00:0.10 / mixed_ref=1 / me_range=48 / chroma_me=1 / trellis=2 / 8x8dct=1 / cqm=0 / deadzone=21,11 / fast_pskip=0 / chroma_qp_offset=-3 / threads=9 / lookahead_threads=2 / sliced_threads=0 / nr=0 / decimate=0 / interlaced=0 / bluray_compat=0 / constrained_intra=0 / bframes=11 / b_pyramid=2 / b_adapt=2 / b_bias=0 / direct=3 / weightb=1 / open_gop=0 / weightp=2 / keyint=240 / keyint_min=23 / scenecut=40 / intra_refresh=0 / rc_lookahead=100 / rc=2pass / mbtree=0 / bitrate=5819 / ratetol=1.0 / qcomp=0.70 / qpmin=0 / qpmax=69 / qpstep=4 / cplxblur=20.0 / qblur=0.5 / vbv_maxrate=50000 / vbv_bufsize=50000 / nal_hrd=none / filler=0 / ip_ratio=1.40 / pb_ratio=1.30 / aq=1:0.70
Language                    : English
Default                     : Yes
Forced                      : No

Audio #1
ID                          : 2
Format                      : AC-3
Format/Info                 : Audio Coding 3
Codec ID                    : A_AC3
Duration                    : 1 h 33 min
Bit rate mode               : Constant
Bit rate                    : 384 kb/s
Channel(s)                  : 6 channels
Channel positions           : Front: L C R, Side: L R, LFE
Sampling rate               : 48.0 kHz
Frame rate                  : 31.250 FPS (1536 SPF)
Bit depth                   : 16 bits
Compression mode            : Lossy
Stream size                 : 256 MiB (6%)
Title                       : Dub [Pie Post Production, iTunes] 5.1 384 Kbps
Language                    : Ukrainian
Service kind                : Complete Main
Default                     : Yes
Forced                      : Yes

Audio #2
ID                          : 3
Format                      : AC-3
Format/Info                 : Audio Coding 3
Codec ID                    : A_AC3
Duration                    : 1 h 33 min
Bit rate mode               : Constant
Bit rate                    : 448 kb/s
Channel(s)                  : 6 channels
Channel positions           : Front: L C R, Side: L R, LFE
Sampling rate               : 48.0 kHz
Frame rate                  : 31.250 FPS (1536 SPF)
Bit depth                   : 16 bits
Compression mode            : Lossy
Stream size                 : 299 MiB (7%)
Title                       : Original, 5.1 448 kbps
Language                    : English
Service kind                : Complete Main
Default                     : No
Forced                      : No

Text
ID                          : 4
Format                      : UTF-8
Codec ID                    : S_TEXT/UTF8
Codec ID/Info               : UTF-8 Plain Text
Duration                    : 1 h 28 min
Bit rate                    : 50 b/s
Count of elements           : 1138
Stream size                 : 32.4 KiB (0%)
Title                       : Ita SDH
Language                    : Italian
Default                     : No
Forced                      : No

Menu
00:00:00.000                : en:(01)00:00:00:000
00:07:33.166                : en:(02)00:07:33:166
00:15:33.041                : en:(03)00:15:33:041
00:23:42.875                : en:(04)00:23:42:875
00:30:54.125                : en:(05)00:30:54:125
00:39:01.583                : en:(06)00:39:01:583
00:46:31.208                : en:(07)00:46:31:208
00:53:50.750                : en:(08)00:53:50:750
01:01:49.875                : en:(09)01:01:49:875
01:09:33.000                : en:(10)01:09:33:000
01:16:31.332                : en:(11)01:16:31:332
01:27:30.625                : en:(12)01:27:30:625
01:33:13.000                : en:(13)01:33:13:000


Джерело: & &

[24.02.2018] Реліз оновлено - замінено відеоряд з на та додано оригінальну доріжку


 Трекер:    Зареєстрований   

Завантажити / скачати мультфільм українською



відео для новачків



 Зареєстрований:   2018-02-24 09:24
 Розмір:   4.33 GB 
 Оцінка мультфільму:   8.2/10 (Голосів: 30)
   
Інші релізи
   Ми - монстри / Happy Family (2017) AVC Ukr/Eng | Sub Ita 11FrYkT  35 / 0   1.45 GB   2018-02-24 18:35 
   Ми - монстри / Happy Family (2017) Remux 1080p Ukr/Eng staf777  7 / 0   17.19 GB   2018-02-22 20:20 
   Ми - монстри / Happy Family (2017) 1080p Ukr/Eng staf777  11 / 0   8 GB   2018-02-18 18:20 
   Ми - монстри / Happy Family (2017) Jatx_11  36 / 0   1.37 GB   2018-02-06 10:58 
ProgBassing 
Попереджень: 2
Попереджень: 2 


З нами з: 08.03.08
Востаннє: 23.02.19
Повідомлень: 872

2018-02-08 21:57  
...графіка слабенька, сценарій з провисонами, а тому й динаміка фільму дуже дивна, не цікава
...так ніби це передфінально-чорновий варіант піксарівського мульта :!

casper101 
VIP


З нами з: 03.12.09
Востаннє: 23.02.19
Повідомлень: 360

2018-02-10 08:56  
щаслива сімейка.
Anonymous 







2018-02-24 09:26  
Реліз оновлено - замінено відеоряд з на та додано оригінальну доріжку.
TeronUA 
VIP


З нами з: 13.02.09
Востаннє: 23.02.19
Повідомлень: 331

2018-05-02 01:26  
Такого нудно-ідіотського мультфільму я давно не бачив.
Сюжет, мальовка, діалоги, музика - все жахливе.

Ваш часовий пояс: GMT + 2 Години

Нова тема   Відповісти