Новорічний корпоратив / Office Christmas Party (2016) Remux 1080p Ukr/Eng | Sub Eng

Нові коментарі

Нова тема   Відповісти
Автор Повідомлення
staf777 
Відео Гуртом - підтримка та поширення
Відео Гуртом - підтримка та поширення


З нами з: 16.11.16
Востаннє: 24.05.19
Повідомлень: 2382

2018-02-05 18:32  
Новорічний корпоратив / Office Christmas Party (2016) Remux 1080p Ukr/Eng | Sub Eng

Новорічний корпоратив / Office Christmas Party (2016) Remux 1080p Ukr/Eng | Sub Eng


Жанр: комедія
Країна: США



Кінокомпанія: Bluegrass Films, DreamWorks, Paramount Pictures
Режисер: Джош Ґордон, Вілл Спек
Актори: Джейсон Бейтман, Олівія Манн, Ті Джей Міллер, Дженніфер Еністон, Кейт МакКіннон, Кортні Б. Венс, Джилліан Белл, Роб Корддрі, Ванесса Байєр, Рендолл Парк

Сюжет:
Керолл Венстон – голова великої компанії, в філіалі якої керує брат Керолл – Клей. Ця дочірня компанія зазнає великих збитків, і владна сестриця хоче прикрити контору. Вона дає родичу і головному інженеру Джошу Паркеру останній шанс – заманити будь-якими засобами Волтера Дейвіса, який зможе привнести в компанію 14 мільйонів доларів. І в голову Клея не спадає кращої ідеї, ніж влаштувати грандіозну вечірку і таким чином вразити інвестора. Те, що було на тусовці, виходить за рамки нормального ...


Тривалість: 01:45:08
Якість: Remux 1080p
Відео:
кодек:
розмір кадру: 1920x1080
бітрейт: 29.8 Mб/с

Аудіо # 1:
мова: українська
переклад: професійний дубльований
кодек: 2.0
бітрейт: 192 кб/с

Аудіо # 2:
мова: англійська
переклад: оригінал
кодек: -HD MA 5.1
бітрейт: 2048 кб/с

Субтитри # 1-2 (Full, SHD):
мова: англійська
тип: програмні (м'які)
формат: *.srt
Info
General
Unique ID : 171415889244700042406552035214511604411 (0x80F57FD8F100EDF3AA5817ABEB5082BB)
Complete name : P:\Майбутні релізи\ Office Christmas Party (2016) Remux 1080p [Ukr][Eng][Sub Eng][Hurtom].
Format :
Format version : Version 4 / Version 2
File size : 23.5 GiB
Duration : 1 h 45 min
Overall bit rate mode : Variable
Overall bit rate : 32.0 Mb/s
Movie name : Office Christmas Party (2016) Remux 1080p [Ukr][Eng][Sub Eng][Hurtom]
Encoded date : UTC 2018-02-05 16:04:26
Writing application : v9.8.0 ('Kuglblids') 64bit
Writing library : libebml v1.3.4 + v1.4.5

Video
ID : 1
Format : AVC
Format/Info : Advanced Video Codec
Format profile : [email protected]
Format settings, CABAC : Yes
Format settings, ReFrames : 4 frames
Codec ID : V_MPEG4/ISO/AVC
Duration : 1 h 45 min
Bit rate mode : Variable
Bit rate : 29.8 Mb/s
Maximum bit rate : 35.0 Mb/s
Width : 1 920 pixels
Height : 1 080 pixels
Display aspect ratio : 16:9
Frame rate mode : Constant
Frame rate : 24.000 FPS
Standard : NTSC
Color space : YUV
Chroma subsampling : 4:2:0
Bit depth : 8 bits
Scan type : Progressive
Bits/(Pixel*Frame) : 0.598
Stream size : 21.9 GiB (93%)
Language : English
Default : Yes
Forced : No
Color range : Limited
Color primaries : BT.709
Transfer characteristics : BT.709
Matrix coefficients : BT.709

Audio #1
ID : 2
Format : AC-3
Format/Info : Audio Coding 3
Mode extension : CM (complete main)
Format settings, Endianness : Big
Codec ID : A_AC3
Duration : 1 h 45 min
Bit rate mode : Constant
Bit rate : 192 kb/s
Channel(s) : 2 channels
Channel positions : Front: L R
Sampling rate : 48.0 kHz
Frame rate : 31.250 FPS (1536 spf)
Bit depth : 16 bits
Compression mode : Lossy
Stream size : 144 MiB (1%)
Language : Ukrainian
Default : Yes
Forced : Yes

Audio #2
ID : 3
Format :
Format/Info : Digital Theater Systems
Format profile : MA / Core
Mode : 16
Format settings, Endianness : Big
Codec ID : A_DTS
Duration : 1 h 45 min
Bit rate mode : Variable / Constant
Bit rate : 2 048 kb/s / 1 509 kb/s
Channel(s) : 6 channels
Channel positions : Front: L C R, Side: L R, LFE
Sampling rate : 48.0 kHz
Frame rate : 93.750 FPS (512 spf)
Bit depth : 16 bits
Compression mode : Lossless / Lossy
Stream size : 1.52 GiB (6%)
Title : Original
Language : English
Default : No
Forced : No

Text #1
ID : 4
Format : UTF-8
Codec ID : S_TEXT/UTF8
Codec ID/Info : UTF-8 Plain Text
Duration : 1 h 40 min
Bit rate : 97 b/s
Count of elements : 2312
Stream size : 72.1 KiB (0%)
Title : Full
Language : English
Default : No
Forced : No

Text #2
ID : 5
Format : UTF-8
Codec ID : S_TEXT/UTF8
Codec ID/Info : UTF-8 Plain Text
Duration : 1 h 41 min
Bit rate : 105 b/s
Count of elements : 2512
Stream size : 78.5 KiB (0%)
Title : SDH
Language : English
Default : No
Forced : No
Скріншоти




Подяка пану Covenant за українську доріжку
Джерело: &
Особиста оцінка: 0 - не дивився


Золотий реліз (завантажене не впливає на рейтинг)
 Трекер:    Зареєстрований   

Завантажити / скачати фільм українською



відео для новачків



 Зареєстрований:   2018-02-06 12:57
 Розмір:   23.53 GB 
 Оцінка фільму:   7.9/10 (Голосів: 9)
   
bot 
робот


З нами з: 30.09.07
Востаннє: 26.05.05
Повідомлень: 21384

2018-02-05 18:32  
Тему перенесено з Фільми в HD до форуму Анонси релізів


staf777

bot 
робот


З нами з: 30.09.07
Востаннє: 26.05.05
Повідомлень: 21384

2018-02-06 12:56  
Тему перенесено з Анонси релізів до форуму Фільми в HD


staf777

tomvm 
Новенький


З нами з: 08.06.08
Востаннє: 19.05.19
Повідомлень: 14

2019-01-08 22:04  
Глянув трейлер по мегого, та зрозумів що хочу негайно глянути!!! дякую !!!
Ваш часовий пояс: GMT + 2 Години

Нова тема   Відповісти