Ми - монстри / Happy Family (2017) 1080p Ukr/Eng

Нові коментарі

Нова тема   Відповісти
Автор Повідомлення
staf777 
Відео Гуртом - підтримка та поширення
Відео Гуртом - підтримка та поширення


З нами з: 16.11.16
Востаннє: 19.08.19
Повідомлень: 2710

2018-02-05 17:06  
Ми - монстри / Happy Family (2017) 1080p Ukr/Eng

Ми - монстри / Happy Family (2017) 1080p Ukr/Eng


Жанр: анімація, комедія, сімейний
Країна: Велика Британія, Німеччина



Кінокомпанія: Ambient Entertainment GmbH, United Entertainment, Mack Media
Режисер: Хольгер Таппе
Актори: Емілі Вотсон, Джейсон Айзекс, Нік Фрост, Джессіка Браун Фіндлі, Селія Імрі та інші.

Сюжет:
Емма і Френк – звичайні батьки, а Фей і Макс – їх звичайні діти. Сім'я живе своїм життям, має стандартні для багатьох людей проблеми. На жаль, вони не можуть назвати себе щасливими. Щоб урізноманітнити якось своє сімейне життя, Емма замовляє в магазині костюмів "Світ вампірів" наряди для всієї родини. Але трубку піднімає сам граф Дракула. Він пропонує відьмі зачарувати сім'ю й перетворити в монстрів. Тепер Френк став Франкенштейном, Емма – вампіром, Фей – мумією, а Макс – перевертнем. Якщо вони хочуть стати такими, як раніше, сім'я повинна зрозуміти, що для них щастя і знайти його. Адже монстрами можуть бути тільки нещасні.


Тривалість: 01:33:15
Якість: 1080p
Відео:
кодек:
розмір кадру: 1920x804
бітрейт: 10,4 Mб/с

Аудіо # 1:
мова: українська
переклад: професійний дубльований
кодек: 5.1
бітрейт: 384 кб/с

Аудіо # 2:
мова: англійська
переклад: оригінал
кодек: 5.1
бітрейт: 1509 кб/с
Info
General
Unique ID : 197196632546397087164290854238069313022 (0x945AB0A0E9D30E5F87D42F68D6F9CDFE)
Complete name : I:\Happy Family (2017) 1080p [Ukr][Eng][Hurtom] .
Format :
Format version : Version 4 / Version 2
File size : 8.00 GiB
Duration : 1 h 33 min
Overall bit rate : 12.3 Mb/s
Movie name : Happy Family (2017) 1080p [Ukr][Eng][Hurtom]
Encoded date : UTC 2018-02-18 15:56:16
Writing application : v9.8.0 ('Kuglblids') 64bit
Writing library : libebml v1.3.4 + v1.4.5

Video
ID : 1
Format : AVC
Format/Info : Advanced Video Codec
Format profile : [email protected]
Format settings, CABAC : Yes
Format settings, ReFrames : 5 frames
Codec ID : V_MPEG4/ISO/AVC
Duration : 1 h 33 min
Bit rate : 10.4 Mb/s
Width : 1 920 pixels
Height : 804 pixels
Display aspect ratio : 2.40:1
Frame rate mode : Constant
Frame rate : 24.000 FPS
Color space : YUV
Chroma subsampling : 4:2:0
Bit depth : 8 bits
Scan type : Progressive
Bits/(Pixel*Frame) : 0.281
Stream size : 6.77 GiB (85%)
Writing library : core 152 r2851 ba24899
Encoding settings : cabac=1 / ref=5 / deblock=1:-2:-2 / analyse=0x3:0x133 / me=hex / subme=7 / psy=1 / psy_rd=1.05:0.00 / mixed_ref=1 / me_range=16 / chroma_me=1 / trellis=1 / 8x8dct=1 / cqm=0 / deadzone=21,11 / fast_pskip=0 / chroma_qp_offset=-2 / threads=24 / lookahead_threads=4 / sliced_threads=0 / nr=0 / decimate=0 / interlaced=0 / bluray_compat=0 / constrained_intra=0 / bframes=3 / b_pyramid=2 / b_adapt=1 / b_bias=0 / direct=3 / weightb=1 / open_gop=0 / weightp=2 / keyint=240 / keyint_min=24 / scenecut=40 / intra_refresh=0 / rc_lookahead=40 / rc=2pass / mbtree=1 / bitrate=10407 / ratetol=1.0 / qcomp=0.65 / qpmin=0 / qpmax=69 / qpstep=4 / cplxblur=20.0 / qblur=0.5 / vbv_maxrate=50000 / vbv_bufsize=50000 / nal_hrd=none / filler=0 / ip_ratio=1.40 / aq=2:1.00
Language : English
Default : Yes
Forced : No

Audio #1
ID : 2
Format : AC-3
Format/Info : Audio Coding 3
Mode extension : CM (complete main)
Format settings, Endianness : Big
Codec ID : A_AC3
Duration : 1 h 33 min
Bit rate mode : Constant
Bit rate : 384 kb/s
Channel(s) : 6 channels
Channel positions : Front: L C R, Side: L R, LFE
Sampling rate : 48.0 kHz
Frame rate : 31.250 FPS (1536 spf)
Bit depth : 16 bits
Compression mode : Lossy
Stream size : 256 MiB (3%)
Language : Ukrainian
Default : Yes
Forced : Yes

Audio #2
ID : 3
Format :
Format/Info : Digital Theater Systems
Mode : 16
Format settings, Endianness : Big
Codec ID : A_DTS
Duration : 1 h 33 min
Bit rate mode : Constant
Bit rate : 1 509 kb/s
Channel(s) : 6 channels
Channel positions : Front: L C R, Side: L R, LFE
Sampling rate : 48.0 kHz
Frame rate : 93.750 FPS (512 spf)
Bit depth : 24 bits
Compression mode : Lossy
Stream size : 1 006 MiB (12%)
Language : English
Default : No
Forced : No
Скріншоти





Джерело: &
Особиста оцінка: 0 - не дивився


 Трекер:    Зареєстрований   

Завантажити / скачати мультфільм українською



відео для новачків



 Зареєстрований:   2018-02-18 19:20
 Розмір:   8 GB 
 Оцінка мультфільму:   7.3/10 (Голосів: 22)
   
Інші релізи
   Ми - монстри / Happy Family (2017) AVC Ukr/Eng | Sub Ita 11FrYkT  28 / 0   1.45 GB   2018-02-24 19:35 
   Ми - монстри / Happy Family (2017) 720p Ukr/Eng | Sub Ita igor911  2 / 0   4.33 GB   2018-02-24 10:24 
   Ми - монстри / Happy Family (2017) Remux 1080p Ukr/Eng staf777  5 / 0   17.19 GB   2018-02-22 21:20 
   Ми - монстри / Happy Family (2017) Jatx_11  17 / 0   1.37 GB   2018-02-06 11:58 
bot 
робот


З нами з: 30.09.07
Востаннє: 26.05.05
Повідомлень: 21779

2018-02-06 09:26  
Тему перенесено з Анонси релізів до форуму Мультфільми в HD


staf777

Arx1meD_CrackeR 
Новенький


З нами з: 17.04.13
Востаннє: 19.08.19
Повідомлень: 14

2018-02-07 21:56  
Вау - звук 5.1 О_о
vovang6 
Поважний учасник


З нами з: 27.08.12
Востаннє: 16.08.19
Повідомлень: 203

2018-02-09 08:45  
Мдааа... Ну що сказати, дуже слабенький мульт, не цікавий, сценарій ніякий, діалоги нудні та примітивні. 4/10.
staf777 
Відео Гуртом - підтримка та поширення
Відео Гуртом - підтримка та поширення


З нами з: 16.11.16
Востаннє: 19.08.19
Повідомлень: 2710

2018-02-18 19:23  
18.02.2018 о 18.23 реліз оновлено: замінено відеоряд з на + додана оригінальна доріжка

igor911 
Модератор відео


З нами з: 18.01.08
Востаннє: 20.08.19
Повідомлень: 13130

2018-02-18 19:32  
staf777 написано:
me=hex / subme=7 / bframes=3

треба було дочекатись якісного ріпу

Ваш часовий пояс: GMT + 2 Години

Нова тема   Відповісти