Маестро брехні / Wizard Of Lies (2017)

Нові коментарі

Нова тема   Відповісти
Автор Повідомлення
Anonymous 







2018-02-05 03:54  
Маестро брехні / Wizard Of Lies (2017)

Маестро брехні / Wizard Of Lies (2017)


Жанр: драма, біографічний
Країна: США



Кінокомпанія / телеканал: HBO
Режисер: Баррі Левінсон
Актори: Роберт Де Ніро, Мішель Пфайфер, Алессандро Нівола, Нейтен Дарроу та інші

Сюжет:
Телефільм американського режисера Баррі Левінсона, знятий за однойменною книжкою журналістки Діани Енрікес про одну з найбільших у світі фінансових пірамід, яку створив Бернард Мейдофф і яка була викрита владі його синами. У головній ролі Роберт Де Ніро. Діана Енрікес зіграла у фільмі саму себе, відтворюючи у фільмі сцену інтерв'ю з Мейдоффом у перший день тюремного ув'язнення. Слоган фільму: «Зрадити можуть лише ті, кому по-справжньому довіряєш»


Тривалість: 02:12:43

Якість: [Hurtom, джерело - Remux]
Відео:
кодек:
розмір кадру: 704 x 400
бітрейт: 1929 кб/c

Аудіо # 1:
мова: українське
озвучення: професійне багатоголосе закадрове
кодек: 5.1
бітрейт: 448 кб/с

Озвучено студією "НеЗупиняйПродакшн"
Info
Код:
General
Complete name               : Wizard Of Lies (2017) [Ukr] [Hurtom].avi
Format                      : AVI
Format/Info                 : Audio Video Interleave
Format profile              : OpenDML
File size                   : 2.21 GiB
Duration                    : 2 h 12 min
Overall bit rate            : 2 389 kb/s
Movie name                  : Маестро брехні / Wizard Of Lies (2017) [Ukr] [Hurtom]
Genre                       : драма, біографічний
Writing application         : VirtualDubModUkr 1.5.10.2 (build 2542/release)
Writing library             : VirtualDubMod build 2542/release
Comment                     : https://toloka.to/t87126 06.02.2018 fixed

Video
ID                          : 0
Format                      : MPEG-4 Visual
Format profile              : Advanced [email protected]
Format settings             : BVOP1
Format settings, BVOP       : 1
Format settings, QPel       : No
Format settings, GMC        : No warppoints
Format settings, Matrix     : Default (MPEG)
Codec ID                    :
Codec ID/Hint               :
Duration                    : 2 h 12 min
Bit rate                    : 1 929 kb/s
Width                       : 704 pixels
Height                      : 400 pixels
Display aspect ratio        : 16:9
Frame rate                  : 23.976 (24000/1001) FPS
Color space                 : YUV
Chroma subsampling          : 4:2:0
Bit depth                   : 8 bits
Scan type                   : Progressive
Compression mode            : Lossy
Bits/(Pixel*Frame)          : 0.286
Stream size                 : 1.79 GiB (81%)
Writing library             : 67

Audio
ID                          : 1
Format                      : AC-3
Format/Info                 : Audio Coding 3
Codec ID                    : 2000
Duration                    : 2 h 12 min
Bit rate mode               : Constant
Bit rate                    : 448 kb/s
Channel(s)                  : 6 channels
Channel positions           : Front: L C R, Side: L R, LFE
Sampling rate               : 48.0 kHz
Frame rate                  : 31.250 FPS (1536 SPF)
Bit depth                   : 16 bits
Compression mode            : Lossy
Stream size                 : 425 MiB (19%)
Alignment                   : Split accross interleaves
Interleave, duration        : 42  ms (1.00 video frame)
Interleave, preload duratio : 500  ms
Title                       : UKR MVO [DontStopProduction] Fixed
Service kind                : Complete Main
Ще скріншоти:
Джерело:
Постер: DanyZemlyanoy

06.02.2018 реліз оновлено - в українські доріжці виправлено рівень гучності озвучення


Авторський реліз (завантажувати можна без реєстрації)
 Трекер:    Зареєстрований   

Завантажити / скачати фільм українською



відео для новачків



 Зареєстрований:   2018-02-06 11:39
 Розмір:   2.21 GB 
 Оцінка фільму:   9.2/10 (Голосів: 66)
   
bot 
робот


З нами з: 30.09.07
Востаннє: 26.05.05
Повідомлень: 22324

2018-02-05 21:45  
Тему перенесено з Анонси релізів до форуму Фільми


igor911

Anonymous 







2018-02-06 11:40  
Реліз оновлено - в українські доріжці виправлено рівень гучності озвучення
ika1963 
Відео Гуртом - дизайнер
Відео Гуртом - дизайнер


З нами з: 13.05.10
Востаннє: 20.10.19
Повідомлень: 280

2018-02-06 22:25  
Нашим рагулям-жлобам з влади цей фільм примусово треба показати, щоб знали, що карма річ жорстока та не зворотня.
Volodya_S 
Поважний учасник


З нами з: 04.02.11
Востаннє: 21.10.19
Повідомлень: 194

2018-02-07 22:38  
не хочу бути снобом, проте слово "слоган" якесь не українське, може краще "гасло" ?
SanCarlos 
Новенький


З нами з: 28.11.15
Востаннє: 17.10.19
Повідомлень: 1

2018-02-08 00:23  
Volodya_S
"сноб" теж запозичене) "гасло", як і "слоган" теж... Слово "параноя" теж запозичене

qarty1 
VIP


З нами з: 01.11.09
Востаннє: 21.10.19
Повідомлень: 266

2018-02-08 01:17  
за гріхи відповідають близькі люди, карма. Доречі в тюрьмі скупляв какао і продавав по дорожчій ціні Happy 8\10
Volodya_S 
Поважний учасник


З нами з: 04.02.11
Востаннє: 21.10.19
Повідомлень: 194

2018-02-08 04:55  
SanCarlos
хіба "слоган" запозичене? я думав іншомовне

megavip 
Новенький


З нами з: 19.10.09
Востаннє: 19.10.19
Повідомлень: 11

2018-02-10 02:14  
Прикольно, коли можеш купити цілий фільм, щоб показати своє бачення цієї історії.
tpolit 
VIP


З нами з: 10.01.15
Востаннє: 18.10.19
Повідомлень: 482

2018-02-11 18:15  
Люблю такі фільми. Щоправда, він не такий крутий, як "Гра на пониження", але все-одно надзвичайно цікавий. Дякую.
ZlyiRomantyk 
Новенький


З нами з: 25.02.12
Востаннє: 30.06.19
Повідомлень: 18

2018-02-12 00:16  
Фільм вартий часу. Навіть якщо ви не плануєте фінансової піраміди.
Victor_Scythian 
VIP


З нами з: 06.01.17
Востаннє: 21.10.19
Повідомлень: 284

2018-02-13 07:43  
Нудно, прогнозовано не цікаво... 1/10.
knedlyk 
VIP


З нами з: 08.07.08
Востаннє: 16.10.19
Повідомлень: 265

2018-02-13 22:13  
Отримав море задоволення! 10/10
merlinker 
Попереджень: 1
Попереджень: 1 


З нами з: 03.04.11
Востаннє: 18.10.19
Повідомлень: 73

2019-10-04 22:25  
ЧУДОВИЙ ФІЛЬМ
Ваш часовий пояс: GMT + 2 Години

Нова тема   Відповісти