Моя дівчина - монстр / Colossal (2016) Remux 1080p Ukr/Eng | Sub Eng

Нові коментарі

Нова тема   Відповісти
Автор Повідомлення
staf777 
Відео Гуртом - підтримка та поширення
Відео Гуртом - підтримка та поширення


З нами з: 16.11.16
Востаннє: 19.05.19
Повідомлень: 2347

2018-02-04 22:23  
Моя дівчина - монстр / Colossal (2016) Remux 1080p Ukr/Eng | Sub Eng

Моя дівчина - монстр / Colossal (2016) Remux 1080p Ukr/Eng | Sub Eng


Жанр: комедія, фантастика, екшн
Країна: Канада, Іспанія



Кінокомпанія: Toy Fight Productions, Brightlight Pictures, Sayaka Producciones Audiovisuales
Режисер: Начо Віґалондо
Актори: Енн Гетевей, Джейсон Судейкіс, Ден Стівенс, Остін Стовелл, Тім Блейк Нельсон, Рукія Бернард, Ганна Черамі, Сара Сурх, Аґам Дарши, Мелісса Монтґомері

Сюжет:
Життя Глорії не можна назвати легким. Вона вже довгий час без роботи, а хлопець вигнав її з дому. Глорія повинна кинути життя в Нью-Йорку і переїхати в своє рідне містечко. У цей же час в Сеулі, столиці Південної Кореї, гігантський монстр руйнує будівлі. Дівчина спочатку не надає значення цій події, але з часом розуміє, що пов'язана з монстром. Глорія повинна врятувати безліч людей від цього чудовиська, хоча вона сама і є цей монстр. Треба взяти його під контроль...


Тривалість: 01:49:23
Якість: Remux 1080p [Взято з європейського Блу-рея]
Відео:
кодек:
розмір кадру: 1920x1080
бітрейт: 32 Mб/с

Аудіо # 1:
мова: українська
переклад: багатоголосий закадровий | студія Tretyakoff production
кодек: 2.0
бітрейт: 192 кб/с
примітка:
Цитата:
З меґоґо доріжки не буде?
Ні, тому що вона по якості гірша за цю.


Аудіо # 2:
мова: англійська
переклад: оригінал
кодек: -HD MA 5.1
бітрейт: 3468 кб/с

Субтитри # 1 (Forced):
мова: українська
тип: програмні (м'які)
формат: *.srt
примітка: на неозвучений момент в проміжку з 01:05:00 по 01:08:00

Субтитри # 2:
мова: англійська
тип: програмні (м'які)
формат: *.srt
Info
General
Unique ID : 246538442511312762024492499227005549110 (0xB97993AEE66916CB8A56C3462F71FA36)
Complete name : K:\Майбутні релізи\Colossal (2016) Remux 1080p [Ukr][Eng][Sub Eng][Hurtom].
Format :
Format version : Version 4 / Version 2
File size : 27.3 GiB
Duration : 1 h 49 min
Overall bit rate mode : Variable
Overall bit rate : 35.7 Mb/s
Movie name : Colossal (2016) Remux 1080p [Ukr][Eng][Sub Eng][Hurtom]
Encoded date : UTC 2018-02-04 18:17:57
Writing application : v9.8.0 ('Kuglblids') 64bit
Writing library : libebml v1.3.4 + v1.4.5
Cover : Yes
Attachments : cover_land.jpg / small_cover.jpg / small_cover_land.jpg / cover.jpg / cover

Video
ID : 1
Format : AVC
Format/Info : Advanced Video Codec
Format profile : [email protected]
Format settings, CABAC : Yes
Format settings, ReFrames : 4 frames
Codec ID : V_MPEG4/ISO/AVC
Duration : 1 h 49 min
Bit rate mode : Variable
Bit rate : 32.0 Mb/s
Maximum bit rate : 35.0 Mb/s
Width : 1 920 pixels
Height : 1 080 pixels
Display aspect ratio : 16:9
Frame rate mode : Constant
Frame rate : 23.976 (24000/1001) FPS
Color space : YUV
Chroma subsampling : 4:2:0
Bit depth : 8 bits
Scan type : Progressive
Bits/(Pixel*Frame) : 0.644
Stream size : 24.5 GiB (90%)
Title : Colossal.2016.
Language : English
Default : No
Forced : No

Audio #1
ID : 2
Format : AC-3
Format/Info : Audio Coding 3
Mode extension : CM (complete main)
Format settings, Endianness : Big
Codec ID : A_AC3
Duration : 1 h 49 min
Bit rate mode : Constant
Bit rate : 192 kb/s
Channel(s) : 2 channels
Channel positions : Front: L R
Sampling rate : 48.0 kHz
Frame rate : 31.250 FPS (1536 spf)
Bit depth : 16 bits
Compression mode : Lossy
Stream size : 150 MiB (1%)
Title : 2.0 @ 192 kbps
Language : Ukrainian
Default : Yes
Forced : Yes

Audio #2
ID : 3
Format :
Format/Info : Digital Theater Systems
Format profile : MA / Core
Mode : 16
Format settings, Endianness : Big
Codec ID : A_DTS
Duration : 1 h 49 min
Bit rate mode : Variable / Constant
Bit rate : 3 468 kb/s / 1 509 kb/s
Channel(s) : 6 channels
Channel positions : Front: L C R, Side: L R, LFE
Sampling rate : 48.0 kHz
Frame rate : 93.750 FPS (512 spf)
Bit depth : 24 bits
Compression mode : Lossless / Lossy
Stream size : 2.65 GiB (10%)
Title : -HD.MA.5.1
Language : English
Default : No
Forced : No

Text #1
ID : 4
Format : UTF-8
Codec ID : S_TEXT/UTF8
Codec ID/Info : UTF-8 Plain Text
Duration : 8 s 159 ms
Bit rate : 198 b/s
Count of elements : 3
Stream size : 202 Bytes (0%)
Title : Forced
Language : Ukrainian
Default : Yes
Forced : Yes

Text #2
ID : 5
Format : UTF-8
Codec ID : S_TEXT/UTF8
Codec ID/Info : UTF-8 Plain Text
Duration : 1 h 42 min
Bit rate : 56 b/s
Count of elements : 1399
Stream size : 42.8 KiB (0%)
Title : Full
Language : English
Default : No
Forced : No
Скріншоти
Джерело: &
Подяка пану Covenant за доріжку та пану Hanway за синхронізацію.
Особиста оцінка: 0 - не дивився


Золотий реліз (завантажене не впливає на рейтинг)
 Трекер:    Зареєстрований   

Завантажити / скачати фільм українською



відео для новачків



 Зареєстрований:   2018-02-04 22:23
 Розмір:   27.28 GB 
 Оцінка фільму:   7.6/10 (Голосів: 5)
   
Інші релізи
Ваш часовий пояс: GMT + 2 Години

Нова тема   Відповісти