Відважні / Thank You for Your Service (2017) Remux 1080p Ukr/Eng | Sub Eng/Spa/Fre

Нові коментарі

Нова тема   Відповісти
Останній раз роздавалося Timm (2019-12-11)
Автор Повідомлення
IronBee 
Поважний учасник


З нами з: 08.02.10
Востаннє: 10.12.19
Повідомлень: 225

2018-02-04 14:49  
Відважні / Thank You for Your Service (2017) Remux 1080p Ukr/Eng | Sub Eng/Spa/Fre

Відважні / Thank You for Your Service (2017) Remux 1080p Ukr/Eng | Sub Eng/Spa/Fre


Жанр: драма, військовий, біографічний
Країна: США



Кінокомпанія: DreamWorks, Reliance Entertainment, Dune Films
Режисер: Джейсон Голл / Jason Hall
Актори: Гейлі Беннетт / Haley Bennett, Майлз Теллер / Miles Teller, Джо Коул / Joe Cole, Емі Шумер / Amy Schumer, Кіша Касл-Г'юз / Keisha Castle-Hughes, Керрі Кегілл / Kerry Cahill, Кейт Лін Шейл / Kate Lyn Sheil, Ерін Дарк / Erin Darke, Бред Беєр / Brad Beyer, Джейсон Ворнер Сміт / Jayson Warner Smith, Скотт Хейз / Scott Haze та інші

Сюжет:
Після служби в Іраку група американських солдатів намагається повернутися до нормального сімейного та цивільного життя, але спогади про війну не дають їм спокою і можуть зруйнувати їхні життя назавжди.


Тривалість: 01:48:59
Якість: Remux
Відео:
кодек:
розмір кадру: 1920 х 1080
бітрейт: 34 Mб/с

Аудіо # 1:
мова: українська (MEGOGO)
переклад: професійний дубльований
кодек: 2.0
бітрейт: 192 кб/с

Аудіо # 2:
мова: англійська
переклад: оригінал
кодек: -HD MA 5.1
бітрейт: 4082 кб/с

Субтитри:
мова: англійська
тип: пререндерні
формат: *.PGS

Субтитри:
мова: іспанська
тип: пререндерні
формат: *.PGS

Субтитри:
мова: французька
тип: пререндерні
формат: *.PGS
Info
General
Unique ID : 107910901154065792342466247355331119837 (0x512EE232AE895CF7D503C152E7920ADD)
Complete name : E:\Films\Відважні Thank You for Your Service (2017) Remux 1080p UkrEng Sub Eng[Hurtom].
Format :
Format version : Version 4 / Version 2
File size : 29.2 GiB
Duration : 1 h 48 min
Overall bit rate mode : Variable
Overall bit rate : 38.3 Mb/s
Movie name : Thank.You.for.Your.Service.2017.REMUX.1080p.BluRay.AVC.-HD.MA.7.1-iFT
Encoded date : UTC 2018-02-04 11:37:51
Writing application : v20.0.0 ('I Am The Sun') 64-bit
Writing library : libebml v1.3.5 + v1.4.8

Video
ID : 1
Format : AVC
Format/Info : Advanced Video Codec
Format profile : [email protected]
Format settings : CABAC / 4 Ref Frames
Format settings, CABAC : Yes
Format settings, ReFrames : 4 frames
Codec ID : V_MPEG4/ISO/AVC
Duration : 1 h 48 min
Bit rate mode : Variable
Bit rate : 34.0 Mb/s
Maximum bit rate : 37.4 Mb/s
Width : 1 920 pixels
Height : 1 080 pixels
Display aspect ratio : 16:9
Frame rate mode : Constant
Frame rate : 23.976 (24000/1001) FPS
Color space : YUV
Chroma subsampling : 4:2:0
Bit depth : 8 bits
Scan type : Progressive
Bits/(Pixel*Frame) : 0.684
Stream size : 25.9 GiB (89%)
Default : Yes
Forced : No

Audio #1
ID : 2
Format : AC-3
Format/Info : Audio Coding 3
Codec ID : A_AC3
Duration : 1 h 48 min
Bit rate mode : Constant
Bit rate : 192 kb/s
Channel(s) : 2 channels
Channel positions : Front: L R
Sampling rate : 48.0 kHz
Frame rate : 31.250 FPS (1536 SPF)
Bit depth : 16 bits
Compression mode : Lossy
Stream size : 150 MiB (1%)
Language : Ukrainian
Service kind : Complete Main
Default : No
Forced : No

Audio #2
ID : 3
Format :
Format/Info : Digital Theater Systems
Format profile : MA / Core
Codec ID : A_DTS
Duration : 1 h 48 min
Bit rate mode : Variable / Constant
Bit rate : 4 082 kb/s / 1 509 kb/s
Channel(s) : 8 channels / 6 channels
Channel positions : Front: L C R, Side: L R, Back: L R, LFE / Front: L C R, Side: L R, LFE
Sampling rate : 48.0 kHz
Frame rate : 93.750 FPS (512 SPF)
Bit depth : 24 bits
Compression mode : Lossless / Lossy
Stream size : 3.11 GiB (11%)
Language : English
Default : Yes
Forced : No

Text #1
ID : 4
Format : PGS
Muxing mode : zlib
Codec ID : S_HDMV/PGS
Codec ID/Info : Picture based subtitle format used on BDs/HD-DVDs
Duration : 1 h 41 min
Bit rate : 37.5 kb/s
Count of elements : 2877
Stream size : 27.3 MiB (0%)
Language : English
Default : Yes
Forced : No

Text #2
ID : 5
Format : PGS
Muxing mode : zlib
Codec ID : S_HDMV/PGS
Codec ID/Info : Picture based subtitle format used on BDs/HD-DVDs
Duration : 1 h 47 min
Bit rate : 28.1 kb/s
Count of elements : 2501
Stream size : 21.6 MiB (0%)
Language : Spanish
Default : No
Forced : No

Text #3
ID : 6
Format : PGS
Muxing mode : zlib
Codec ID : S_HDMV/PGS
Codec ID/Info : Picture based subtitle format used on BDs/HD-DVDs
Duration : 1 h 47 min
Bit rate : 29.4 kb/s
Count of elements : 2549
Stream size : 22.6 MiB (0%)
Language : French
Default : No
Forced : No

Menu
00:00:00.000 : en:Chapter 01
00:05:54.937 : en:Chapter 02
00:13:09.622 : en:Chapter 03
00:18:47.209 : en:Chapter 04
00:22:51.369 : en:Chapter 05
00:28:07.143 : en:Chapter 06
00:35:26.457 : en:Chapter 07
00:39:10.222 : en:Chapter 08
00:45:47.786 : en:Chapter 09
00:49:54.032 : en:Chapter 10
00:52:06.832 : en:Chapter 11
00:57:43.751 : en:Chapter 12
01:04:07.635 : en:Chapter 13
01:11:22.111 : en:Chapter 14
01:16:42.139 : en:Chapter 15
01:21:40.228 : en:Chapter 16
01:26:15.420 : en:Chapter 17
01:32:19.283 : en:Chapter 18
01:41:06.101 : en:Chapter 19
01:42:58.589 : en:Chapter 20
01:48:59.616 : en:Chapter 21
Скріншоти



Джерело: &
Особиста оцінка: 0 - не дивився


Золотий реліз (завантажене не впливає на рейтинг)
 Трекер:    Зареєстрований   

Завантажити / скачати фільм українською



відео для новачків



 Зареєстрований:   2018-02-04 14:50
 Розмір:   29.18 GB 
 Оцінка фільму:   8.6/10 (Голосів: 12)
   
Інші релізи
   Відважні / Thank You for Your Service (2017) AVC Ukr/Eng | Sub Eng 11FrYkT  5 / 0   2.18 GB   2018-02-03 18:48 
   Відважні / Thank You for Your Service (2017) 1080p Ukr/Eng | Sub Eng staf777  7 / 0   7.85 GB   2018-02-03 18:36 
   Відважні / Thank You for Your Service (2017) 720p Ukr/Eng | Sub Eng igor911  4 / 0   4 GB   2018-02-03 16:29 
   Відважні / Thank You for Your Service (2017) Jatx  0 / 0   1.27 GB   2018-02-03 15:34 
Dimitros82 
Новенький


З нами з: 01.01.17
Востаннє: 11.12.19
Повідомлень: 15

2018-02-04 22:33  
тільки в мене замість відео зелена екран зі звуком фільму?
Lyolic 
VIP


З нами з: 04.08.09
Востаннє: 11.12.19
Повідомлень: 396

2018-02-06 13:42  
Dimitros82
Все нормально з відео...

Lyolic 
VIP


З нами з: 04.08.09
Востаннє: 11.12.19
Повідомлень: 396

2018-02-09 19:39  
Сильний фільм!
ВАВУНЯ 
VIP


З нами з: 30.06.15
Востаннє: 11.12.19
Повідомлень: 267

2018-02-17 11:27  
чи буде кращий звук? коли?
дякую.

Ваш часовий пояс: GMT + 2 Години

Нова тема   Відповісти