Пурпурна троянда Каїра / The Purple Rose of Cairo (1985) AVC Ukr/Eng

Нові коментарі

Нова тема   Відповісти
Автор Повідомлення
Anonymous 







2018-02-04 15:10  
Пурпурна троянда Каїра / The Purple Rose of Cairo (1985) AVC Ukr/Eng

Пурпурна троянда Каїра / The Purple Rose of Cairo (1985) AVC Ukr/Eng


Жанр: фентезі, мелодрама, комедія
Країна: США



Кінокомпанія: Orion Pictures Corporation
Режисер: Вуді Аллен
Актори: Міа Ферроу, Джефф Деніелс, Денні Айелло, Ірвінг Мецман, Стефані Ферроу, Девід Кісерман, Ілейн Гроллман, Вікторія Зуссін, Марк Хеммонд, Вейд Барнс

Сюжет:
30-ті роки, в США - велика депресія. Скромна офіціантка Сесілія намагається втекти від жорстокої реальності, насолоджуючись фільмами в кінотеатрі. Одного разу трапляється диво: її кумир Том Бакстер, «Містер Досконалість», сходить з чорно-білого екрану в зал до глядачів в обійми збожеволілої від щастя Сесілії...


Тривалість: 01:22:06
Якість:
Відео:
кодек:
розмір кадру: 1024 х 556
бітрейт: 5065 кб/с

Аудіо # 1:
мова: українська
переклад: багатоголосий закадровий
кодек: 2.0
бітрейт: 192 кб/с

Аудіо # 2:
мова: англійська
переклад: оригінал
кодек: 5.1
бітрейт: 384 кб/с
Скріншоти







МІ
Complete name : E:\The Purple Rose of Cairo 1985 AVC.
Format :
Format version : Version 4 / Version 2
File size : 3.24 GiB
Duration : 1 h 22 min
Overall bit rate : 5 643 kb/s
Encoded date : UTC 2018-01-27 18:57:20
Writing application : v8.8.0 ('Wind at my back') 64bit
Writing library : libebml v1.3.3 + v1.4.4

Video
ID : 1
Format : AVC
Format/Info : Advanced Video Codec
Format profile : [email protected]
Format settings : CABAC / 5 Ref Frames
Format settings, CABAC : Yes
Format settings, ReFrames : 5 frames
Codec ID : V_MPEG4/ISO/AVC
Duration : 1 h 22 min
Bit rate : 5 065 kb/s
Width : 1 024 pixels
Height : 556 pixels
Display aspect ratio : 1.85:1
Frame rate mode : Constant
Frame rate : 23.976 (24000/1001) FPS
Color space : YUV
Chroma subsampling : 4:2:0
Bit depth : 8 bits
Scan type : Progressive
Bits/(Pixel*Frame) : 0.371
Stream size : 2.90 GiB (90%)
Writing library : core 146 r2555 0c21480
Encoding settings : cabac=1 / ref=5 / deblock=1:-1:-1 / analyse=0x3:0x113 / me=umh / subme=8 / psy=1 / psy_rd=1.00:0.15 / mixed_ref=1 / me_range=16 / chroma_me=1 / trellis=1 / 8x8dct=1 / cqm=0 / deadzone=21,11 / fast_pskip=1 / chroma_qp_offset=-3 / threads=3 / lookahead_threads=1 / sliced_threads=0 / nr=0 / decimate=1 / interlaced=0 / bluray_compat=0 / constrained_intra=0 / bframes=3 / b_pyramid=2 / b_adapt=2 / b_bias=0 / direct=3 / weightb=1 / open_gop=0 / weightp=2 / keyint=250 / keyint_min=23 / scenecut=40 / intra_refresh=0 / rc_lookahead=50 / rc=crf / mbtree=1 / crf=19.0 / qcomp=0.60 / qpmin=0 / qpmax=69 / qpstep=4 / ip_ratio=1.40 / aq=1:1.00
Default : Yes
Forced : No

Audio #1
ID : 2
Format : AC-3
Format/Info : Audio Coding 3
Codec ID : A_AC3
Duration : 1 h 22 min
Bit rate mode : Constant
Bit rate : 192 kb/s
Channel(s) : 2 channels
Channel positions : Front: L R
Sampling rate : 48.0 kHz
Frame rate : 31.250 FPS (1536 SPF)
Bit depth : 16 bits
Compression mode : Lossy
Delay relative to video : -208 ms
Stream size : 113 MiB (3%)
Title : MVO AMC
Language : Ukrainian
Service kind : Complete Main
Default : Yes
Forced : Yes

Audio #2
ID : 3
Format : AC-3
Format/Info : Audio Coding 3
Codec ID : A_AC3
Duration : 1 h 22 min
Bit rate mode : Constant
Bit rate : 384 kb/s
Channel(s) : 6 channels
Channel positions : Front: L C R, Side: L R, LFE
Sampling rate : 48.0 kHz
Frame rate : 31.250 FPS (1536 SPF)
Bit depth : 16 bits
Compression mode : Lossy
Delay relative to video : -42 ms
Stream size : 226 MiB (7%)
Service kind : Complete Main
Default : No
Forced : No
Джерело:
Особиста оцінка: 8 - дивно, хоч це і Вуді Аленн, але мені сподобалося
Подяки: За запис звуку з ТБ Sando7 та за синхронізацію drop_plz


Срібний реліз (на рейтинг впливає 50% завантаженого)
 Трекер:    Зареєстрований   

Завантажити / скачати фільм українською



відео для новачків



 Зареєстрований:   2018-02-04 15:10
 Розмір:   3.24 GB 
 Оцінка фільму:   10/10 (Голосів: 4)
   
Інші релізи
Ваш часовий пояс: GMT + 2 Години

Нова тема   Відповісти